&title=Wonder Ruins
&artist=晴いちばん; 初音ミク
&first=0
&des=ワンダールインズ
&wholebpm=143.000
&lv_5=13+
&des_5=ワンダールインズ
&inote_5=(143)
{16},,,,,,,,,,,,,,,,
{16}2>6[8:4],,,B3,,,B5,,,,,,,,,,
{16}7<3[8:4],,,B8,,,B2,,,,,,,,,,
{16}2<5[16:10],,,E3,,,
B4,,,,5>6[8:7],,,,3p6[8:5],,
{16},,,,,,,,,,,,,,,,
{16}5-1[8:3]/7,,,,6,,,,5,,,,4,,1,,
{16}4-8[8:3]/2,,,,3,,,,4,,,,5,,7,,
{16}86,,5,,42,,3,,8,4,7,5,{32}6h[4:1],,7xp4[32:24],8x,1x,2x,3x,4x,
{16},,,,,,,,,,,,,,,,
{16}3,,,,3,,,,34,,,4,3,,5,,
{16}3,,,,3-1[8:1],,,,1-5[8:1],,,,,,,,
{16}6,,,,6,,,,65,,,5,7,,6,,
{16}5V37[8:4]/4,,,,3,,,,B2,,,,E1,,,,
{16}68,,,,6,,,,65,,,5,6,,4,,
{16}53,,,,1-5[8:1],,,,7-5[8:1],,,,,,,,
{16}34,,,,3,,,,31,,,3,4,,2,,
{16}31,,4,,7-3[8:1]/5,,6,,3-5[8:1],,,,,,,,
{16}E7h[8:1],,,,1x/5x,2,3,4,6x,7,8,3x,4,5,1xh[4:1],,
{16},,6x,,4x/8x,3,2,1,7x,6,5,2x,1s5[16:3],8,4h[4:1],,
{32},,,,,,,,{16}6,,57,,4,,31,,2,,5,3,
{16}6,4,7,5,{32}8xh[2:1],,6x,7x,,1x,2x,3x,{16}4xh[4:1]`2!q6[71.5#16:1],,,,6!q2[8:1]/2!q6[8:1],,,,
{16}2b/6b,,,,8x,,64,,1/2,,{24}7,6,5,{16}4,,1,,
{16}2h[4:1]/4,,6,,8-6[8:1],,4,,2-5[8:1]/8,,,,2,,8,,
{16}74,,{24}6,,5,{16}6,,2,,1/3h[4:1],,7,,5,,24,,
{16}17,,{24}2,3,4,{16}5,,8,,2-8[8:1]/7-4[8:1],,,,27,,,,
{16}25,,3,,74,,{24}6,,1x,8x,,,{16}7^4[8:1],,3,,17,,
{16}2h[4:1],,{24}1,8,7,{16}6,,34,,2x-5[8:1]/6x-1[8:1],,,,2b/6b,,,,
{16}8h[4:1],,6,,4,,1/2h[4:1],,4,,6^3[8:1],,1x/8x,,3x/6x,,
{16},,12,,3^8[8:1]/7,,56,,3/7^4[8:1],,,,7-3[8:1]/1s5[16:2],,,,
{16}D8/A8/D1/E8/E1,,,,2xh[4:1],,,,6,6h[16:4],,7,,1,,3h[16:3]/4,
{16},,2,,4v6p2[16:5],,6,,7h[4:1],,,,,,,,
{32}A6,E6,E5,A4,A2,E2,E1,A8,{16}7xh[4:1],,,,3,3h[16:4],,2,,8,,6h[16:3]/5,
{16},,7,,1-5[8:1],,3,,1/4-1[16:2]*-7[8:1],,,,,,,,
{16}A2/B2/C/A6/B6,,,,3x,,4,,3x,4,,4,3x,,2,,
{16}1xh[8:1]/7x,,7,,8xh[8:1]/3x,,3,,2xh[8:1]/6x,,6,,7xh[8:1]/4x,,4,,
{16}A5/A6/D6/E6,,,,3x,,4,,3x,4,,4,3x,,2,,
{16}1xh[8:1]/7x,,5,,6xh[8:1]/4xpp1[32:11],,2,,,,,,8xb,,,,
{16}A7/B7/C/A3/B3,,,,6x/5x,,7,,6x/5x,6,,4,5x/4x,,7,,
{16}8xh[8:1]/2x,,2,,1xh[8:1]/6x,,6,,7xh[8:1]/3x,,3,,2xh[8:1]/5x,,5,,
{16}A4/A3/D4/E4,,,,6x/5x,,7,,6x/5x,6,,4,5x/4x,,7,,
{16}8xh[8:1]/4x,,2,,1xh[8:1]/7x,,5,,6xh[8:1]/2x,,4,,3xh[8:1]/7x,,5,,
{16}E3h[8:1],,,,8x,5,6,4,8x,5,6,2x,4,3,8x,5,
{16}6,4,8x,,6x/2x,,3,4,2x,5,3,8x,4z8[16:3],6,2xh[4:1],,
{16},,,,3,,57,,6,,14,,3,,8,2,
{16}7,1,6,8,7,5,6,4,{32}5,,4xh[16:3],3x,2x,1x,8x,7x,6x>8[16:3],,,,,,,,
{16}6b/2bV48[16:3],,,,,,,,{32}1x-5[8:1]/6x-1[8:1],,,,{16},,{32},,,,{16},,
{16}3,4,2,4,3-8[8:1],,{32}5-7[8:1],,,,{16}3x/7x-3[8:1],,5,,,,,,
{16}2x/4x,,{32}6x,7,,,{32}1x,2,,,{32}4x,5,,,{32}1x/7x,,,,3x,4,,,
2x/8x,,,,6x,5,,,
{16}3x-8[8:1]/7x-2[8:1],,{48}6x,4x,5x,,,,{16}3b/7b,,,,4x/6x,,3,3,2x-5[8:1]/4x-8[8:1],,,,
{16}2b/4b<2[16:3],,,,,,,,3x-8[8:1]/7x-3[8:1],,,,,,,,
{16}6,5,7,5,6-1[8:1],,{32}2-4[8:1],,,,{16}4x-7[8:1]*-8[8:1]/6x,,2,,,,,,
{16}1x/6x,,{32}3x,4,,,
6x,7,,,1x/2x,,,,
{64}7b/3b,6x,4x,5x,,,,,
{32},,,,
2-5[8:1]/6,,,,
1,,,,
{16}2b/6b-1[8:1],,,,4b/6b,,,,{32}8x,7,6,5,4,3,2,1,{16}8h[4:1],,,,
{16}2>6[2:1],,,,,,,,{32}8,B8,,,{16},,,,,,
{16}7<3[2:1],,,,,,,,{32}2,B2,,,{16},,,,,,
{16}3pp2[8:5],,,,,,,,{32}8,B8,,,{16},,,,,,
{16}8<3[16:7],,,,,,,,{32}2,B2,,,{16},,{32},,,,,,,,
{16}2x,,4,,3x,5,,5,4x,6,,6,5x,,7,,
{16}7x,,5,,6x,4,,4,5x,3,,3,4x,,2,,
{16}13,,4,,57,,6,,52,,3,,48,,6,,
{16}5x,7,4,8,3,4,2,5,{32}1xh[4:6],6x,7x,8x,,2x,3x,4x,{16}5xh[4:5],,,,
{16}7?p3[23.83#48:3],,,,,,,,7?p3[35.75#32:3]/3?p7[35.75#32:3],,,,,,,,
{16}7?p3b[71.5#16:3]/3?p7b[71.5#16:3],,,,,,,,,,,,,,,,
{16},,,,{32}1x,2,3,4,5,6,7,8,{16}1w5[8:1]/Cf,,{24},,,{16}1b,,,,
{16}37,,5,,6/4^1[8:1],,2,,4/8-4[8:1]*^5[8:1],,,,8,,,,
{16}25,,{24}3,,4,{16}3,,56,,2/8^5[8:1],,4,,8,,3,,
{16}2h[4:1]/4,,{24}1,8,7,{16}6,,43,,6v1[8:1]/2v5[8:1],,,,62,,,,
{16}48,,6,,15,,{24}3,,8x,1x,,,{16}2^5[8:1],,4,,6/2^7[8:1],,
{16}8,,{24}6,5,4,{16}3,,1x/6x,,3-7[8:1]/4-8[8:1],,,,3b/4b,,,,
{16}1h[4:1],,3,,5,,8/7h[4:1],,5,,3^6[8:1],,5x/1x,,7bh[4:1]/3b,,
{16},,8,,2^5[8:1]/6^1[8:1],,84,,2b/6b,,,,{24}6x,7,8,1,2,3,
{16}4xb>5b[8:5]/Cfh[4:1],,,,B8/B1/E1,,,,,,,,,,,,
{16}24,,3,,{24}57,,,{16}6,,{24}3,,3,{24}5h[4:1],,,7,8,1,2,3,4,
{16}8xb-4[8:1],,6,,38,,1,,2x-5[8:1],,4,,62,,8,,
{16}75,,{24}6,,6,4,,4,5,,5,{16}3xh[8:1],,1x,,7x/8x,,5x,,
{16}13,,2,,{24}5,,5,{16}8,,17,,{24}6,,6,4,,4,{16}1,,
{16}8x^3[8:1],,2,,78,,5,,4xqq5[4:1],,6,,48,,7,,
{24}6,,6,8,,8,1,,1,3,,3,{24}5,,5,4h[4:1],,3x,{32}2x,1x,8x,7x,6xb,,,,
{16},,75,,42,,81,,{32}2x,3,4,5,6,7,8,1,2xq5[4:8]/7x,6,5,4,3,2,1,8,
{16}7xp4[4:7],,,,,,,,,,,,,,,,
{16},,,,,,,,,,,,,,,,
