&title=スターナイトスノウ
&artist=Poppin'Party
&first=1.05
&lv_5=13
&des_5=Saki
&inote_5=
(180){12}C,,E8,{8}E6,E3h[8:5],{24},,,,,,,,,,,,{6}E5,
{12}E1,C,{24},{8}E7h[8:3],,,{4}E3,
B8,B4,E7,E3,
{6}5h[6:1],{12}4,5h[6:1],,4,{6}5h[6:1],{12}4,5h[4:1],,,{6}1bh[6:1],
{12}7,5h[6:1],,6,{6}4h[6:1],{12}5,3h[6:1],,6,
{6}8h[6:1],{12}7,1h[6:1],,8,{6}2h[6:1],{12}6,4h[6:1],,1,
{6}2h[6:1],{12}8,1h[6:1],,7,{6}8h[6:1],{12}6,7h[6:1],,5,
{6}1h[6:1],{12}6,8h[6:1],,,1bx,2,3,5/4x,6,7,
{6}8x,{12}3,4,,4,{6}1,{12}1,7,,7,
{6}4,{12}4,8,,8,{6}2,{12}2,6,,,{4}1>4[8:1]`8h[4:1],
1,7<4[8:1]`1h[4:1],7,
1-5[8:1]`8h[4:3],1x-3[8:1],{2}1x-5[8:1],
{1}6pp1[4:5]`4h[2:3],
,2pp5[4:5]`8h[2:3],
,4qq1[4:5]`5h[2:3],
,8qq5[4:5]`1h[2:3],
{4},,,,7-4[8:1]`2,
1,2-5[8:1]`8,7,
{2}6<8[8:1]`2h[1:1],6>3[8:1],
{4}8-5[8:1],3,1-4[8:1],7,
{2}6>3[8:1]`1h[1:1],6p2[8:1],
{4}6p1[8:1],,,4>8[4:1],
6,5<1[4:1],4,3<1[2:1],
3,{12},,,,,,7,1,7,
{1}1p4[8:3],
{2}8qq5[1:1],{4}2-5[0.6667##0.3333],3,
{12}2,,,,,8h[3:1]/2h[3:1],,,,,,,{2}1pp4[1:1],
{4}7-4[0.6667##0.3333],6,
{12}7,,,,,6h[4:1],,,4,5,,6,
2h[4:1],,,,,7,,,7,5,,5,
{4}3,2h[2:1],{2}8-5[8:1],
{6}3h[4:5],{12}B8,B7,,B6,{4}B5,A7/E8/B7,
E6/B5/A5,E7/B6/A6,6h[4:1],2h[4:1],
{6}5,{12}5,3,,3,{6}6,{12}6,2,,,1,
8,1,8,,,{2}1/8p4[8:1],
{4}8/1b-5[8:1],1/7-4[8:1],7/3-8[8:1],3/6,
{2}2>5[8:1]/1q5[8:1],7<4[8:1]/8p4[8:1],
{4}6/2-5[8:1],2/7-2[8:1],7/4-1[8:1],4/8-5[8:1],
{2}8/2-5[8:1]*>5[8:1],8-4[8:1]*-4[8:1],
{4}5/3-8[8:1],3/6-1[8:1],6/2-5[8:1],2/7-4[8:1],
{2}7/1V35[8:1],2/8V64[8:1],
8<5[8:1]/1p5[8:1],1>4[8:1]/8q4[8:1],
{4}6/1-5[8:1],8,2/8-4[8:1],3,
7/2b-7[8:1],2/6-3[8:1],6/1-4[8:1],5/1,
{2}7<4[12:1]/8>3[12:1],2>5[12:1]/1<6[12:1],
{4}7/2-5[8:1],2/7-4[8:1],7/1-5[8:1],1/8-4[8:1],
{2}8/2V46[8:1]*>6[8:1],8V64[8:1]*<6-4[8:1],
{4}1-5[8:1]/8-6[8:1],8-4[8:1]/1-3[8:1],1-5[8:1]/8-6[8:1],1/8,
{2}3/7pp8[8:1],6/3pp4[8:1],
{4}1p5[8:1]*<5b[8:1],1,1>5[8:1]*q5b[8:1],1,
{2}1-4[8:1]/8-5[8:1],1q5[8:1]/8p4[8:1],
{4}1x/2b,2/3x,3x/4,4/5x,
5/6x,8/7x,8/1x,1/2x,
3/2x,3/4x,4x/5,6x/5,
7x/6,8x/7,{6}7xh[6:1],{12}8,7h[6:1],,8,
{4}7x,8x/7,7x/5,6/4x,
5x/3,4/2x,2/1x,7/8x,
7x/5,6/4x,{12}6,4,5,3,4,2,
{4}7h[4:1],{12}3,,2h[4:1],,,6,6h[6:1],,,{6}1b,
{12}1,3,,3,{6}5,{12}5,7,,7,
{1}1-4[4:3],
,7>2-6-3[4:5]`4h[2:3],
,4<5-8>1-4[4:5]`6h[2:3],
,8-5-8[4:5]`2h[2:3],
,5-2-8[4:3]`7h[1:1],
{2},3h[12:17],
{6}6x,{12}B6,B5,,B7,{6}B6,{12}B8,B7,,7,
8/1,8/1,8/1,8/1,,,{2}2h[4:1],
{4}1/7b-3[8:1],7/2-5[8:1],2/8-4[8:1],{12}8/1-5[8:1],,7-4[8:1],
{6}1,{12}7,3-8[8:1],,6-1[8:1],{6}3,{12}6,2-5[8:1],,,{4}2/6<1[8:1],
6/3-8[8:1],3/7v4[8:1],{12}7/1-4[8:1],,6-3[8:1],
{6}1,{12}6,2-7[8:1],,5-8[8:1],{6}2,{12}5,1>4[12:1],,,{4}1/8x<5[12:1],
8/1>4[12:1],1/8<5[12:1],{12}8/1-5[8:1],,8v6[8:1],
{6}1,{12}8,4>1[8:1],,5<8[8:1],{6}4,{12}5,4h[4:1],,,{4}1-6[8:1]*-5[8:1],
1,1/8-3[8:1]*-4[8:1],8,
1v4[8:1]/7v4[8:1],7/1,{12}2,8,2,8,,,{4}7b-5[8:1]/1b-5[8:1],
1/7-3[8:1],7/2V46[8:1],{12}2,,7-4[8:1],
{6}1,{12}7,2-5[8:1],,6-1[6:1],{6}2,{12}6,3-8[8:1],,,{4}3/5-8[8:1],
5/1-4[8:1],1/7<4[8:1],{12}7/2v5[8:1],,1-6[6:1],
{6}2,{12}1,2>5[8:1],,1v6[6:1],{6}2,{12}1,2-5[8:1],,,{4}2/7-4[8:1],
7/1-5[8:1],1/8-4[8:1],{12}8/2>5[8:1],,7<4[8:1],
{6}2,{12}7,1q5[8:1],,8p4[8:1],{6}1,{12}8,1,,,{4}7-4[8:1]/8-5[8:1],
8/7,2-5[8:1]/1-4[8:1],1/2,
8<5[8:1]/1>4[8:1],8/1,1/2,7/5,
{12}6,5,7,3,4,2,7,8,6,2,1,3,
{1}5b-8[4:11],
E
