&title=Deus Judicium
&artist=黒皇帝 vs missionary
&first=0.01
&lv_5=14.9999
&des_5=RoboCraft6254
&inote_5=
(222){4},,,,4,
4,5,5,
3,3,6,6,
2,2,7,7,
1,1,8,8,
1x-4[4:1],4-7[4:1],7-2[4:1],2,
8x-5[4:1],5-2[4:1],2-7[4:1],7,
1x-3[4:1],3-5[4:1],5-7[4:1],7,
8x-6[4:1],6-4[4:1],4-2[4:1],2,
1x-3[4:1],1,8x-6[4:1],8,
2x-5[4:1],2,7x-4[4:1],7,
3x-1[4:1],3,6x-8[4:1],6,
1x,2/7,3x/6x,4x/5x,
3bh[8:1]/4bh[8:1],2b/5b,5bh[8:1]/6bh[8:1],4b/7b,
{24}1b/8b,2/7,3/6,5/4,,,,,,,,,{8}7xh[16:1]/8xh[16:1],6xh[16:1]/1xh[16:1],5xh[16:1]/2xh[16:1],3xh[16:1]/4xh[16:1],
4xh[16:1]/3xh[16:1],2xh[16:1]/5xh[16:1],1xh[16:1]/6xh[16:1],7xh[16:1]/8xh[16:1],1,2,3,4,
{4}Ch[4:1],{16}B1,B2,B3,B4,{8}8h[16:1],7h[16:1],6h[16:1],5h[16:1],
4h[16:1],3h[16:1],2h[16:1],1h[16:1],{2}1xV72-5[8:3]/5xV36-1[8:3],
{4},3/7,{8}1xh[24:1]/5xh[24:1],2h[24:1],3h[24:1],4h[24:1],
4xh[24:1]/8xh[24:1],7h[24:1],6h[24:1],5h[24:1],2x-5[0.5405##0.1351],5x-1[0.5405##0.1351],1x-6[0.5405##0.1351],6x<4[0.5405##0.6757],
A2,A5,A1,A6,4,5,6,7,
8,E4/D4,E3/D3,E2/D2,7/2,{16}1,8,{8}1,1/8,
{4}2bx/7bx,2,2,2,
3,3,3,3,
4bx/5bx,4,4,{16}4x,3x,2x,1x,
{4}5,5,5,{16}1x/5x,2x/6x,3x/7x,4x/8x,
{8}5x/1x,1/5,1/5,1/5,4x/8x,4/8,4/8,4/8,
3x/7x,3/7,6x/2x,2/6,1x/5x,1/5,4x/8x,4/8,
{16}4bx/8bx,1/5,2/6,3/7,4/8,5,6,7,8bx/4bx,1/5,2/6,3/7,4/8,5,6,7,
{2}8xh[2:1],{4}1w5b[8:1],A1f,
{24},,,1b,2/8,3/7,4/6,5b,,,,,{4}3/8,{8}3/8-4[8:1],7/4,
3/8,2,1-5[8:1],1,1/7-3[8:1],7,7/3,2,
{4}1,1b/7b,{8}2x/6x,1b-4[8:1]/7b-4[8:1],,1bx/7bx,
{16},,B1,B2,B3,B4,B5,B6,B7,B8,D1/E1,E8/D8,E7/D7,E6/D6,E5/D5,E4/D4,
E3/D3,E2/D2,,,{4}1bx-4[8:1]/5bx-8[8:1],1x/5x,{8}3/7,B3/B4/E4/B8/E8/B7,
6/2,B6/E6/B5/B1/E2/B2,,E5f/E1f/B8/B1/B4/B5,,B7/B6/B2/B3/E3f/E7f,1/8,7/2,
6/3,5/4,5x/4x,5/3,5/2,5/1,1x/5x,2/6,
3/7,4/8,3x/7x,{24}3x/7x,2x/6x,1x/5x,{8}4x/8x,4x/8x,{4}2b/6b,
4/8x-4[8:1],{8}8/2x-6[8:1],2,7x-3[8:1],7,1x-5[8:1],1,
6x,6,3b/7b,4b/8b,,4/8,7/3,6/2,
5/1,6/2x-6[8:1],,2/8x-4[8:1],,8/1x-5[8:1],,1x,
,3b/6b,2b/7b,1b/8b,2/7,{16}2/7,3/6,{8}4/5,3/6,
{4}1bx/8bx,{8}8x/7x,6bx/1bx,,1x/2x,{4}3bx/8bx,
{8}4x/3x,2bx/5bx,,5x/6x,7bx/4bx,4x/8x,4x/8x,{24}4x/8x,3x/7x,2x/6x,
{8}1x/5x,1x/5x,{16}1,5,2,6,3,7,4,8,{32}E5/D5,B4/A4,E4/D4,B3/A3,E3/D3,B2/A2,E2/D2,B1/A1,
{16}8,7,6,5,4,3,2,1,{32}8/3,4,5,6,7,8,1,2,{4}4b/3b,
{12},,,E6,,E5,,E4,,,,,{2}Cfh[1:16],
E5,
E6,E7,
{16}E1,E8,{8}E7h[8:3],,,,,,,{2}E1,
E8,
{16}E7,E6,{8}E5,,,{2}E4,
E3,E2,
E1,E8,
E7,E6,
{16}E5,E4,{8}E3,,,{2}E2,
E3,E4,
{16}E5,E6,{8}E7h[8:3],,,,,,,{2}E8,
E1,
E2,E3,
{1}E4h[2:1],
{2}E5,E6,
{8}B5h[1:1],,,B6h[8:5],,,{4}B7h[4:1],
,1,1,1,
2,2,2,2,
3,3,3,3,
4,4,4,4,
5,5,5,5,
6,6,6,6,
{16}1,,,8,{8}1,8,{16}1,,,8,{8}1,8,
{12}1,8,2,7,3,6,4,5,3,6,2,7,
{4}1x/8x,2,3,4,
5,6,7,8,
8,7,6,5,
4,3,{16}2,4,2,4,{4}1b,
{8}8,8,8,{16}8x,7x,{8}6x,6,6,{16}6x,5x,
{8}4x,{16}2x,3x,{8}4x,{16}8x,7x,{8}6x,{16}1,2,3,4,5,6,
{12}7x,6,7,6,8,6,1,6,2,6,3,6,
{16}4x,6,4,5,4,3,4,2,4,1,4,8,4,7,4,6,
{1}4,
3q5[4:13]/7q1[4:13],
{2},,,,,,A8/Ch[2:7],
A7,
A6,A5,
A4,A3,
A2,A1,
{4}6,6,{8}5,,,6,
,6,5,6,{2}5,
{4}3,3,{8}4,,,3,
,3,4,3,{2}4,
{4}2b/6b,8b/4b,{8}5b/1b,{16}2/6,3/7,{4}4b/8b,
{1}3bh[4:7]/7bh[4:7],
,2bh[4:3]/6bh[4:3],
{16}1b,5b,1b,5b,1b,5b,1b,5b,{32}1b,2b,3b,4b,5b,6b,7b,8b,{4}5b/1b,
{8}7x/3x-7[8:1],4/8,3/7,6-2[8:1],5,6x/3x-6[8:1],4,3/1,
8-4b[8:1],7,8/1-5b[8:1],2,{4}1/8,{16}4x/8x,3x/7x,2x/6x,5x/1x,
{4}4b/8b,{8}7/8,1,7/8,6,7/8,1,
7-3[0.5405##0.1351],8-4[0.5405##0.1351],1-5[0.5405##0.1351],2-6[0.5405##0.1351],7x,8x,1x,2x,
{4}Cf,{8}8/1-5b[8:1],2,1/8-4b[8:1],7,8/1,2,
3-7[0.5405##0.1351],4-8[0.5405##0.1351],5-1[0.5405##0.1351],6-2[0.5405##0.1351],3x,4x,5x,6x,
{4}Cf,{8}4/8,7/3,6/2,5/1,{16}1x/5x,2x/6x,3x/7x,4x/8x,
{8}1b/5b,8,7/3,2,{16}1,5,1,5,{32}1,2,3,4,5,6,7,8,
{4}5b/1b,{8}8b/7b,6b/1b,{4}5b/2b,{8}1b/2b,3b/8b,
,1b/8b,7b/2b,3b/6b,{4}4b-1b[8:1]/5b-8b[8:1],5b/4b,
{8}7/2-6b[8:1],3,2/7-3b[8:1],8,7/1-5b[8:1],2,1/8,7,
7x-3[0.5405##0.1351],8x-4[0.5405##0.1351],1x-5[0.5405##0.1351],2x-6[0.5405##0.1351],7b,8b,1b,2b,
{4}7b,{8}4/5,3,5/4,6,5/4,2,
4/6,8,5/3,1,2/7,1/8,{24}1b/8b,2/7,3/6,4/5,{48},,,,{16}3b,
4,2,5,1,6,8,7,2b,1,3,8,4,7,5,6,
5b,6,5,7,4,8,3,1,2,7b,8,6,1,5,2,4,
3b,4,3,4,5,6,7,8,1b,2,3,4,1,2,3,4,
5b,6,7,8,5,6,7,8,1b,2,3,4,8,7,6,5,
8b,7,6,5,4,3,2,1,4b,3,2,1,8,7,6,5,
4b,3,2,1,8,7,6,5,1b,2,3,4,5,6,7,8,
1b,2,3,4,8,7,6,5,4b,3,2,1,4,3,2,1,
8b,7,6,5,{24}2b,3,4,5,6,7,8b,1,2,3,4,5,6bz2[8:1],7,6,7,6,7,
{48},,,{16}Cf,{1},,{8}1bh[8:13],
,,,,,,{1}8bh[4:3],
2bh[4:3]/7bh[4:3],
3bh[4:3]/6bh[4:3],
4bh[4:3]/5bh[4:3],
3bh[4:3]/6bh[4:3],
2bh[8:15]/7bh[8:15],
{8},,,,,,,,,8bh[4:3]/1bh[4:3],
,,,,,,,2bh[8:7]/7bh[8:7],
{1},{4},,,{24}1bx,
8,1,8,1b,8,1,8,1b,8,1,8,1b,8,1,8,1b,8,1,8,1b,8,1,8,
1b,8,1,8,1b,8,1,8,1b,8,1,8,1b,8,1,8,1b,8,1-5[12:1],8,1b,8,1,8,
{1}1/Cf,
E
