&title=Another Me
&artist=Neutral Moon
&first=0.1
&lv_5=12+
&des=RealRain
&inote_5=
(175){4},,,,{8}B1,
{4},{8}B7,{4},B2,
{8}C,{4},{8}E3,{4},E7,
{8}E1,{4},{8}C,{4},B2,
{8}B7,{4},{8}B1,{4},B6,
{8}E5,{4},{8}E6,{4},B3,
{8}E7,{4},{8}E3,{4},E6,
{8}C,{4},{8}B6,{4},E3,
{8}E8,{4},{8}B2,{4},E1,
3h[8:3],{2},{4}7,
7h[8:3],{2},{4}3,
2h[8:3],{2},{4}7,
8h[8:3],{2},{4}2,
5/3h[8:3],{2},{4}6,
4/6h[8:3],{2},{4}4,
7/3h[8:3],{2},{4}6,
2/7h[8:3],{2},{4}1,
2/7,3/8,2/7,1/6,
8/7,8/1,1/2,1/8,
{8}2/8,3,7/1,6,2/8,4,7/1,5,
8/3,4,1/6,5,1/2,3,8/7,6,
1,1,1,1,1/6x,1,1/7x,1,
8x/1x,8,8,8,8/3x,8,8/4x,8,
{16}8x,5,8,5,8x,4,8,4,{32}8x,7x,6x,5x,4x,3x,2x,1x,8x,7x,6x,5x,4x,3x,2x,1x,
{2}8xh[2:1],{4}1x-3[8:1],1xv8-6[4:1],
4x,4xV61[4:1],3,2,
2x-5[8:1],7,6x-1[8:1],3,
2x-5-1[4:1],7,8x-6v5[4:1],3,
4x-1[8:1],7,8x-5[8:1],3,
4h[8:1]/3h[8:1],5h[8:1]/6h[8:1],1h[8:1]/2h[8:1],7h[8:1]/8h[8:1],
2h[8:1]/4h[8:1],7h[8:1]/5h[8:1],3h[8:1]/1h[8:1],{8}7h[8:1],{16}2x,2x,
{8}8x,8x,8x/3x,8x/3x,{16}3,8,3,8,2,1,2,1,
{32}2x,E3,B3,B4,{8}E5,{4},{8},7,2,8,
{1}1b-5-1[4:29],
{2}B2,B3,
{1}B4,
E4,
B8/E8,
{2}B6/E6,B7/E8,
{1}B6/E7,
Ch[1:1],
1h[1:1],
{2}7h[2:1],1h[2:1],
{1}6h[1:1],
2h[1:1],
7h[1:1],
{2}3h[2:1],6h[4:1],
4h[4:1]/5h[4:1],3h[4:1]/6h[4:1],
1h[4:1]/8h[4:1],2h[4:1]/7h[4:1],
{4}3/6,4,6/2,5,
3/8,4,2/8,4,
8/7,7/8,1/2,1/2,
5h[8:1]/6h[8:1],5h[8:1]/6h[8:1],4h[8:1]/3h[8:1],2h[8:1]/5h[8:1],
{8}5x/1x,5,5,5,5/2x,5,5/1x,5,
1x/5,1,1,1,1/6x,1,1/7x,1,
{16}1x,6,1,6,1x,5,1,5,{32}1x,2x,3x,4x,5x,6x,7x,8x,1x,2x,3x,4x,5x,6x,7x,8x,
{8}1x/5xh[2:1],{2},{8}4/6,3/7,2/8,
{2}1b>6p1[1:1],{4}7,8,
1q6[2:1]*q6[2:1],7,6>1[2:1]*>1[2:1],7,
{2}7-5-3-1-7[1:1],3,
7-5-3-1-7[1:1]*-5-3-1-7[1:1],3,
4x>7V14[1:1],{4}6,5,
4-1-7[2:1]*-1-7[2:1],6,7>4[2:1]*>4[2:1],5,
{2}6-8-2-4-6[1:1],2,
6-8-2-4-6[1:1]*-8-2-4-6[1:1],2,
1x-3-7-5-1[1:1],{4}7,8,
1-5-7[2:1]*-5-7[2:1],8,7-3-1[2:1]*-3-1[2:1],8,
{2}7x<7[1:1],3,
7<7[1:1]*<7[1:1],3,
4x>7q4[1:1],{4}6,5,
4p7[2:1]*p7[2:1],5,7>4[2:1]*>4[2:1],6,
{2}5h[2:1],{4}3,2,
6,7,{16}1x,2x,3x,4x,5x,6x,7x,8x,
{2}1bx>7p1[1:1],{8}7,{4},{8}8,
{4}1q7[2:1]*q7[2:1],8,7<1[2:1]*<1[2:1],8,
{1}1<1-7-5-3-1b[1:2],
8h[2:1],
{2}8bx<2q8[1:1],{8}2,{4},{8}1,
{4}8p2[2:1]*p2[2:1],1,2>8[2:1]*>8[2:1],1,
{1}8>8-2-4-6-8b[1:2],
1h[2:1],
1b>8p1[1:1],
{2}1q8[2:1]*q8[2:1],8x<1[2:1]*<1[2:1],
{1}1<8<7<6>5>4>3>2<1-7-5-3-1b[1:2],
7h[2:1],
{2}8b<1q8[1:1],1,
8p1[2:1]*p1[2:1],1x>8[2:1]*>8[2:1],
8>1>2>3<4<5<6<7>8-2-4-6-8b[4:7],4xh[4:1],
3xh[4:1],1xh[4:1],
{1}2b-8v7-5[1:4],
,,,2b-4v5-7[1:4]*-4v5-7[1:4],
&lv_6=13
&des=ImagineWind
&inote_6=
(175){4},,,,{8}2h[16:3],
{4},{8}7h[16:3],{4},{8}1,8,
1h[16:3],{4},{8}7h[16:3],{4},{8}4,5,
2h[16:3],{4},{8}6h[16:3],{4},{8}2,1,
2h[16:3],{4},{8}8h[16:3],{4},{8}3,4,
3h[16:3],{4},{8}6h[16:3],{4},{8}4,5,
4h[16:3],{4},{8}5h[16:3],{4},{8}3,4,
3h[16:3],{4},{8}4h[16:3],{4},{8}2,7,
1h[16:3],{4},{8}8h[16:3],{4},{8}7,{16}1,8,
{8}1h[16:3],{4},{8}8h[16:3],{4},{8}8,{16}2,1,
{8}2h[16:3],{4},{8}7h[16:3],{4},{16}1,2,{8}3,
8h[16:3],{4},{8}2h[16:3],{4},{8}7,6,
1h[16:3],{4},{8}8h[16:3],{4},{16}1,2,{8}3,
6h[16:3],{4},{8}3h[16:3],{4},{8}5,5,
4h[16:3],{4},{8}5h[16:3],{4},{16}2,3,{8}4,
6h[16:3],{4},{8}3h[16:3],{4},{8}6,5,
2h[16:3],{4},{8}8h[16:3],{4},{8}7,{16}1,8,
1>4[8:1],{8},{16}8h[16:3],{4}1,7-4[8:1],{8}7,2,
{16}1-4[8:1],{8},{16}7h[16:3],{4}1,6h[4:1],{16}1,2,{8}3,
{16}8<5[8:1],{8},{16}1h[16:3],{4}8,2-5[8:1],{8}2,7,
{16}8-5[8:1],{8},{16}2h[16:3],{4}8,3h[4:1],{16}1,8,{8}7,
4/5,4,4/6,4,4/7,4,4/8,4,
4/8,8,3/8,8,2/8,8,1/8,8,
{16}1,8,1,8,1,7,1,7,1,6,1,6,1,5,1,5,
{2}1x>1-4[8:5],8x-5[8:1]*-5[8:1],
{4}6x/3x-1[8:1],3/6-8v1[4:1],{8}3x,4,4,3,
{4}5xV71[4:1],3,4xV28[4:1],6,
6x-8[8:1],6/3-1v8[4:1],{8}6x,5,5,6,
{4}1x>5[4:1],5<1[4:1],1,5,
{8}1/8,4,1/8,5,2/8,4,7/1,5,
8/3,4,1/6,5,7/3,4,2/6,5,
1x/5x,5x/1x,1/6,1/6,{16}1,7,1,7,1,8,1,8,
{8}1-5[4:1],{2},{8}7-5-2-8[8:61],3-1-6-4[2:15]*-1-6-4[2:15],7,
{1}3b,
,,,,,,,{4}3/6h[4:3],
2,1,2,
3/5,2,1/7,2,
6/3h[4:3],5,6,7,
5/4h[4:3],7,6,7,
3/7h[4:3],4,3,4,
6/5,3,2/7,4,
1/8h[4:3],3,1,4,
2/7h[4:3],4,1,3,
{16}1x-5[8:1],{8},{16}8h[16:3],{4}1,{16}8-4[8:1],{8},{16}1h[16:3],{4}8,
{16}2x-5[8:1],{8},{16}7h[16:3],{4}2,{16}7-4[8:1],{8},{16}1h[16:3],{4}7,
{16}1xq5[8:1]*q5[8:1],{8},{16}8h[16:3],{4}1,{16}8p4[8:1]*p4[8:1],{8},{16}1h[16:3],{4}8,
{16}2x>5[8:1]*>5[8:1],{8},{16}7h[16:3],{4}2,{16}7<4[8:1]*<4[8:1],{8},{16}1h[16:3],{4}7,
{8}1/5x,1,1/6,1,1/7,1,1/8,1,
1/8,8,8/2,8,3/8,8,8/4,8,
{16}4,8,4,8,3,7,3,7,2,6,2,6,1,5,1,5,
{4}1w5b[8:1],1b,{8},4/6,3,2,
{4}8/1bq5[8:1],{8}1,8<5[8:1],,8,{4}1,
7/2-6[8:1],{8}2,1,8-3[8:1]*-5[8:1],7,{4}8,
4<7[8:1],{8}4,2-6[8:1],,2,{4}5-8[8:1],
5/2,{8}1-5[8:1],7-4[8:1]*-4[8:1],1-3b[8:1],7,{4}1,
6-1[8:1],{8}6,4-8[8:1],,4,{4}5,
1/6-2[8:1],{8}6,5,4-1[8:1]*-7[8:1],3,{4}4,
8<5[8:1],{8}8,2q6[8:1],,2,{4}1,
1-5[8:1],1<5[2:1]*<5[2:1],{8}3,4,3,2,
{4}1b>4[8:1],{8}1,7-3[8:1],,7,{4}5,
8/4-8[8:1],{8}4,5,6-1[8:1]*-3[8:1],7,{4}6,
2-5[8:1],{8}2,8p4[8:1],,8,{4}3-1[8:1],
3/7,{8}8-4[8:1],2-5[8:1]*-5[8:1],8-6b[8:1],2,{4}8,
4>1[8:1],{8}4,6-2[8:1],,6,{4}5,
6/4-8[8:1],{8}4,5,6-1[8:1]*-3[8:1],7,{4}6,
2>5[4:1],5<8[4:1]*<8[4:1],8>3b[4:1],5,
{2}7xh[2:1],{32}B1,B2,B3,B4,B5,B6,B7,B8,E2,E3,E4,E5,E6,E7,E8,E1,
{2}5bx/E2,{4}2-4[8:1],{8}2,8,
{4}7<4[8:1],7>2[8:1],7-4[8:1],7-1v2-4[2:1]*-1v2-4[2:1],
7,4-6-3-1b[2:1],{8}6,{4},{8}5x,
{4}5x-1[8:1],5,1x-4[8:1]*-6[8:1],1,
5-2[8:1],5-8[8:1],5-1[8:1],{8}5,8,
{4}7-4[8:1]*-2[8:1],7,3-6[8:1]*-8[8:1],3,
7,7-5-8-2b[2:1],{8}7,{4},{8}4,
{4}4-8b[8:1],4,{8}7/1,2,4/5,6,
{4}2b/8b-5[8:1],8-3[8:1],8-4[8:1],{8}8,1,
{4}2-5[8:1]*-7[8:1],2,6-3[8:1]*-1[8:1],6,
2-8v7-5[2:1]*-8v7-5[2:1],2,{8}5v4-2b[4:1],{4},{8}8,
{4}7-5-8-2b[2:1],7,4-1b[8:1],4,
5x/2xh[4:3],7-5[8:1],7-1[8:1],7,
7-4[8:1]*-2[8:1],7,3-8[8:1]*-6[8:1],3,
7h[4:1],6h[4:1],7h[4:1],8h[4:1],
7h[4:1],2h[4:1],6h[4:1],3,
{1}5b/4b-2v1-7[2:1],
{2}1h[2:1],8h[2:1],
{4}2h[4:3],5,6,7,
6h[4:3],2,3,2,
{1}7/3h[1:1],
{2}6h[2:1],{4}2,3,
{2}5h[4:1],4h[4:1]/5h[4:1],
3h[4:1]/6h[4:1],{4}3/6,4v5[4:1]/5v4[4:1],
{1}4-2b[4:1]/5-7b[4:1],
