&title=缄色症候
&artist=ariiol
&first=0.08
&lv_5=13.8
&des_5=杪秋AUT
&inote_5=
(130){4}8x<5[2:1],4x,3x,2x,
1>4[2:1],5,6,7,
8-2[8:1],7,6-8[8:1],5,
4-6[8:1],4-2[8:1],4w8[8:1],4b,
{8}2/1h[4:1],3,2h[4:1],8,1w5[8:1],3,{4}1b,
{8}7/8h[4:1],6,7h[4:1],1,8-5[8:1]*-3[8:1],6,{4}8b,
{8}5/4,3,5/4,6,5/4,B6/B3,5/4,E7/E3,
{4}8h[8:1]/Ch[4:3],7h[8:1],6h[8:1],5<8b[8:1],
{8}5b-1[8:1],3,{16}5/1,2,{8}3,{16}2/6-8[8:1],3,{8}4,{4}6/3-5[8:1],
{8}3/1-5[8:1],1,3-1[8:1],3,7-5[8:1]*-1[8:1],7,{4}7,
4-2b[8:1],4b-6[8:1],{16}4/8,1,{8}2,{16}7/3-5[8:1],6,{8}5,
3-1[8:1],8,3p1[8:3],6,{2}3,
{4}8b-5b[8:1],{16}1/8bq4[8:1],2,{8}3,{16}7/8p4[8:1],6,{8}5,{4}8/1,
{8}8-4[8:1],8,6-8[8:1],6,2-4[8:1]*-8[8:1],2,{4}2,
4-2b[8:1],4b-6[8:1],{16}4/8,1,{8}2,{16}7/3,6,{8}5,
5/4,B3/E3,5/4,E7/B6,6/3,6/3,{16}1,8,{8}1,
{4}8-5[8:1]/1-4[8:1],8b/1b,7h[8:1]/8h[8:1],1h[8:1]/2h[8:1],
{8}1p4[8:1],2,1/8<5[8:1],7,8/2-4[8:1],1,{4}2,
8-6[8:1]/7-4[8:1],7/8,{8}3,3h[8:1],2,2h[8:1],
{4}1-7[8:1],4/1-3[8:1],6/1-7[8:1],3/1,
1bw5b[8:1],1b,{8}7/1,7/1,{16}2,1,{8}2,
7h[4:1],8,5h[4:1],6,8h[4:1],1,3h[4:1],4,
{4}1b-6b[8:1],1b/2b-5b[8:1],{8}2b/7b-4b[8:1]*-2b[8:1],6/8,{4}7b,
6h[8:3],3h[8:1],{8}6/3,6/3,{16}4,5,{8}4,
{4}4/8b<4[8:5],{8}3,3,{4}2,1,
8b>4[8:5],{8}5,5,{4}6-8[8:1],6,
4h[8:1]/8-5[8:1],8/3h[8:1],2h[8:1]/8-4[8:1],8/1h[8:1],
5h[8:1]/1-4[8:1],1/6h[8:1],7h[8:1]/1-5[8:1],1/8h[8:1],
{16}2,1,2,1,3,1,3,1,4,1,3,1,2,1,{8}2,
{16}7,8,7,8,6,8,6,8,5,8,6,8,7,8,{8}7,
{16}6,5,4,3,2,1,8,7,5/6,4,3,2,4,3,2,1,
{4}8h[4:3]/E3/B3/B2,B7/E7/B6,1-5b[8:1],1b<5s1>5[8:15],
{1},,{4}6-8b[8:1],
6b-4[8:1],{16}6/2,1,{8}8,{16}3/7-5[8:1],4,{8}5,
7-1[8:1],2,7qq4[8:3],4,{2}7,
{4}1b-4b[8:1],{16}8/1b-6[8:1],7,{8}6,{16}2/1q5[8:1],3,{8}4,{4}1/8,
{8}2-6[8:1],2,7-5[8:1],7,1-7[8:1]*-3[8:1],1,{4}1,
8b-6b[8:1]/1b-6b[8:1],8-3[8:1]/1-3[8:1],8/1-5[8:1],1/2,
{16}E2/E6,E3/E7,{8}E4/E8,{16}A8/A4,A7/A3,{8}A6/A2,{16}1/5,2/6,{8}3/7,{16}4<8pp4>2[8:15]/8>4pp8<6[8:15],7/3,{8}6/2,
{1},,{4}5b-8b[8:1]/1b-4b[8:1],
5b/1b,{16}2,4,{8}2,{16}7,5,{8}7,
4/5h[8:1],2,5/4h[8:1],7,7-5[8:1]/8-4[8:1],5/4-2[8:1]*-2[8:1],{4}7/8,
Cfh[8:1],{8}8/1,8/1,{16}7,2,{8}7,{4}1h[8:1]/8-6[8:1],
{8}8/2-4[8:1],1,2/8-6[8:1],1,8/2q4[4:1],1,{4}2,
8bw4b[8:1],8b,{16}6,5,{8}6,{16}3,4,{8}3,
{16}8/3,7,{8}6,{16}1/6,2,{8}3,{16}2/A7,A6,{8}A5,{16}2/7,3,{8}4,
{4}5b-8b[8:1]/4b-1b[8:1],5b/4b,{8}1<5[4:1],3,5<1[4:1],3,
1<5[4:1],3,5<1[4:1],3,1<5[4:1],3,{4}5,
1b-6b[8:1]*-4b[8:1],1b,{8}1<5[4:1],7,1>5[4:1],3,
1V75[4:1],7,1-3-5[4:1],3,1-5[8:1],7,{4}1,
{6}7h[16:1],{24}1,2,{12}3/7h[16:1],,{24}2,3,{6}4/8h[16:1],{12}3,4bx/8bx,{6},2h[16:1],
{24}8,7,{12}6/2h[16:1],,{24}7,6,{6}5/1h[16:1],{12}6,5bx/1bx,{6},{32}8,
7,6,5,4,3,2,1,8,7,6,5,4,3,2,1,A8,A7,A6,A5,A4,A3,A2,A1,A8,A7,A6,A5,A4,A3,A2,A1,
{4}8xh[1:1]/E3h[6:1],E7h[6:1],2h[6:1],6h[6:1],
1bw5b[8:1],1b,{12}7,6,5,3,2,1,
6,7,8,2,3,4,8,7,6,5pp8[8:3]/4qq1[8:3],{6},{2}5/4,
{12}7b,7,7,5b,5,5,
3b,3,3,1b,1,1,7b,6,5,3b,2,1,
{4}8bxw4b[8:1],8b,{12}6,8,6,3,1,3,
7h[12:1],8h[12:1],7,2h[12:1],1h[12:1],2,8-5[8:1]/1-4[8:1],2/7,6/3,8/1,{6},{2}Cfh[4:1],
{12}7/2,2h[12:1]/7h[12:1],,8/1,8h[12:1]/1h[12:1],,{4}3bx-8b[8:1],
3b/6b-1b[8:1],6b/2b-7b[8:1],2b/5bw1b[8:1],
5b-3b[8:1]*-7b[8:1],5b,{12}7/8,7/8,7/8,1h[6:1]/8h[6:1],{6},{12}1/2,
1/2,1/2,8h[6:1]/1h[6:1],{6},{12}1<7[12:1],2,3,4>2[12:1],5,6,
{4}7h[4:1],1h[4:1],{12}5b,6,7,2,{6}2,
{12}6,7,8,3,{6}3,8h[12:1]/B4,7h[12:1]/B3,6h[12:1]/B2,
{4}B1/5b-8b[8:1]*-2b[8:1],5,{12}7,2,2,8,{6}8,
{12}2,7,7,1,{6}1,1/5,2/6,3/7,
{4}8b-5b[8:1]/4b-1b[8:1],4b/8b,{12}2/1,3,4,7/8,6,5,
1b-7b[8:1],6,6,1b-3b[8:1],4,4,1b-7b[8:1],6,6,1b>1b[1:2],{4},,,,,,,,,{12}Ch[6:1],
{24},,,,,{8}B3/B4,
E
