&title=【音】カゲロウデイズ 『Sekai ver.』
&artist=初音ミク、星乃一歌、天馬咲希、望月穂波、日野森志歩
&first=0.172
&lv_6=1
&des_6=
&inote_6=
(185){4},
E
&lv_7=14?
&des_7=LanD
&inote_7=
(200){4},,,,,,,,,,,,,,,,1-5[16:1],
2-4[16:1],1-5[16:1],2-4[16:1],
1-5[16:1],2-4[16:1],1-5[16:1],2-4[16:1],
7-5[16:1],8-4[16:1],7-5[16:1],8-4[16:1],
7-5[16:1],8-4[16:1],{2}7-5[16:1],
{8},,3b/6h[4:31],3,3,3,{4}3,
3,{8}3,3,{4}3,{8}3,3,
3b,3,3,3,3b,3,3,3,
3b,3,3,3,3b,3,3,3,
{4}3b,{8}3,3,3,3,{4}3,
{8}3,,,3b,3,3,3,3,
{4}3b,{8}3,3,{4}3,3,
3,{8}3,3,{4}3,3,
3,{8}6b/3h[4:29],6,6b,6,{4}6b,
6b,{8}6,6,{4}6,{8}6b,6,
6,6,6,6,6b,6,6,6,
6b,6,6,6,6b,6,6,6,
{4}6b,{8}6,6,6,6,{4}6,
{8}6,,,6b,6,6,6,6,
{4}6,{8}6,6,{4}6,6,
6,{8}6,6,{4}6,{8}7,6,
5/4>1[8:7],5,5,5,5,5,5,5,
5,5,5,5,{16}5,4,5,4,{8}5,5/4>1[1:1],
5,5,5,5,5,5,5,5,
5,5,5,5,{16}5,4,5,4,{8}5,5/4>1[1:1],
5,5,5,5,5,5,5,5,
5,5,5,5,5,5/4,{16}5,4,{8}5,
5,5/4>1[4:3],5,5,5,5,5,5,
5,5,5,5,{4}5/4,7/4,
{8}5,{16}5,6,5,6,5,6,{8}5,5,5,5,
{16}5,6,5,6,{8}5,{16}5,6,{8}5,{16}5,6,{8}5,5,
{16}5,6,5,6,5,6,{8}5,5,5,{16}5,6,5,6,
{8}5,{16}5,6,{8}5,{16}5,6,{8}5,5,{16}5,6,5,6,
5,6,{8}5,5,5,{16}5,6,5,6,5,6,{8}5,
{16}5,6,{8}5,{16}5,6,{8}5,7/4,7/4,8/5,8/5,
7/6,7/6,8/1,8/1,2/3,2/3,5/4,4/5,
{16}8,1,8,1,7,2,7,2,{32}5,4,5,4,5,4,,,{4}7z3[16:1]/6z2[16:1],
6b/7b,6p2[16:1]/7s3[16:1],7b/6b,7-3[16:1]/6-2[16:1],
7b/6b,7-2[16:1]/6-3[16:1],7b/6b,{8}8,7,
{4}6-1[16:1],{8}1/6,2,{4}3-6[16:1],3/8-4[16:1],
{8}8/2-6[16:1],2,7-4[16:1],7,{4}1-4[16:1],8b,
{8}5/3,2,6/4,7,5/3,2,6/4,7,
5/3,1,6/4,8,5/3,1,6/4,8,
7h[16:1]/1h[16:1],6h[16:1]/2h[16:1],7h[16:1]/1h[16:1],6h[16:1]/2h[16:1],3h[16:1]/5h[16:1],2h[16:1]/6h[16:1],3h[16:1]/5h[16:1],2h[16:1]/6h[16:1],
{4}4-7[16:1]*-1[16:1],4b,{16}8,1,7,2,8,1,7,2,
{4}8w4[16:1],8,1w5[16:1],1,
{8}8-5[16:1]/1-4[16:1],7/2,{4}8>3[16:1]/1<6[16:1],8/1,{8}8-4[16:1],8,
{4}2<7[16:1],{8}2/6-3[16:1],6,{4}2-5[16:1],2/7-4[16:1],
{8}3-8[16:1],3,6>5>4>3>2<1<8<7<6[4:1],6,{2}2b,
{8}7<4[16:1],8v3[16:1],7,8,7<4[16:1],8v3[16:1],7,8,
5v8[16:1],4>1[16:1],5,4,5v8[16:1],4>1[16:1],5,4,
{4}7-2[16:1],7b/3-8[16:1],3b/7-4[16:1],7b,
{8}8/4,5/1,6/2,3/7,{4}8p4[16:1]/4p8[16:1],8b/4b,
6/3,5h[4:1]/4h[4:1],{8},6/3,{16}5,4,{8}5,
6/3,{16}4,5,{8}4,6h[8:3]/3h[8:3],,,,,6/5,
4/3,4/3,1/2,8/1,7/8,{16}8,1,2,3,
6,4,6,4,6,4,6,4,5,3,5,3,5,3,5,3,
{4}6h[8:11],{8}B8,C,B3,E1,E2,E3,
D1,D2,{4}D3,{8}7/5,6/4,5/2,4/2,
{12}3b,4,5,7,6,5,2,3,4,6,7,8,
2,3,4,7,8,1,3,4,5,6h[4:1],,,{1}7bqq4[4:7],
{4},,,4<3[4:9],
,,,,,,,,{1}3qq8[4:7],
{4},,,8qq4[1:2],
,,,,,,,,{1}1V75<1[4:7],
{4},,,1V35>1[4:7],
,,,,,,,,{1}Ch[1:2],
,B8/B1/B7/B6/B2/B3/B5/B4,
{8}8b/1b,1,8b/1b,8,{2}8b-5[16:1]/1b-4[16:1],
{4}1b-3[16:1]/8b-4[16:1],{16}8/1,Cf,,,{4}8b-6[16:1]/1b-5[16:1],{16}1/8,Cf,,,{4}1-5[16:1]/8-4[16:1],
Cf/1-6[16:1]/8-3[16:1],1/8/Cf,8<5[16:1],
8>3[16:1],8-5[16:1],8-3[16:1],8,
{16}8,8,8,8,8,8,8,8,{32}8w4b[16:1],7,6,5,4,3,2,1,{4}8,
{24}3b,5x,6x,3/7x,8x,1x,2x/3b,1x,8x,3/7x,6x,5x,6x/3b,7x,8x,3/1x,2x,1x,8x/3b,7x,6x,3/5x,,,6b,
4x,3x,6/2x,1x,8x,7x/6b,8x,1x,6/2x,3x,4x,3x/6b,2x,1x,6/8x,7x,8x,1x/6b,2x,3x,6/4x,,,8x,
7x,6x,8x,1x,2x,8x,7x,6x,8x,1x,2x,8x,7x,6x,5x/8x,1x,2x,3x/8x,7x,6x,5x/8x,1x,2x,
{32}3x/8,7,6,5,4,3,2,1,8,7,6,5,4,3,2,1,8,7,6,5,4,3,2,1,{4}8b/4b,
{8}3/6-8[16:1],3,3/6,3,3/6-1[16:1],3,3/6,3,
3/7-5[16:1],3,3/7-4[16:1],3,{4}3/7,{8}6/3-1[16:1],6,
6/3,6,6/3-8[16:1],6,6/3,6,6/2-4[16:1],6,
6/2-5[16:1],6,6/2-7[16:1],6,{2}6/2,
{8}3,3,{24}3/1,8,7,3,,,{8}3,3,{24}3/8,7,6,3,,,{8}6,
6,{24}6/8,1,2,6,,,{8}6,6,{24}6/1,2,{6}3,
{8}8/1,8/1,8/1,8/1,8/1,8/1,8/1,8/1,
7/2,7/2,3/6,6/3,5/4,5/4,5/4,5/4,
6,6,{16}6,5,6,5,{8}6,6,{16}6,5,6,5,
{8}6,6,{16}6,5,6,5,{8}6,6,{16}6,5,6,5,
{8}6,6,{16}6,7,6,7,{8}6,6,{16}6,7,6,7,
{8}6,6,{16}6,7,6,7,{8}6,6,{4}6/7,
{8},,3b/6h[4:31],3,3,3,{4}3,
3,{8}3,3,{4}3,{8}3,3,
3b,3,3,3,3b,3,3,3,
3b,3,3,3,3b,3,3,3,
{4}3b,{8}3,3,3,3,{4}3,
{8}3,,,3b,3,3,3,3,
{4}3b,{8}3,3,{4}3,3,
3,{8}3,3,{4}3,3,
3,{8}6b/3h[4:29],6,6b,6,{4}6b,
6b,{8}6,6,{4}6,{8}6b,6,
6,6,6,6,6b,6,6,6,
6b,6,6,6,6b,6,6,6,
{4}6b,{8}6,6,6,6,6,6,
6,6,6,6,6,6,6,6,
6,6,6,6,6,6,{4}6,
{8}6b,6,6b,6,{2}6bv1[16:1]*-2[16:1],
E
