&title=χΩ
&artist=nm-y
&first=0
&des=LittleD
&lv_5=14+
&inote_5=(200)
{1},,
{8}3,5,4,6h[8:5],,,,,3,4,5,6h[8:5],,,,,2,4,3,5,3,4,5,6,1>6[4:3],,,,7,,,,8<3[4:3],,,,2,,,,8>4[2:1],,,,6,,7,7,8V64[2:1]/5h[4:3],,,,,,,,2V86[2:1]/4h[4:1],,,,,,,,
{8}2b/7b,,5,3,6h[4:1],5h[4:1],,,6h[4:1],4h[4:1],,,5h[4:1],3h[4:1],,,4h[4:1],3h[4:1],,,5h[4:1],4h[4:1],,,6h[4:1],5h[4:1],,,6h[2:1],3,2,1,8-4[8:1],5,6,7,8-2[8:1]*-6[8:1],,8,,4-8[8:1],1,2,3,4-6[8:1]*-2[8:1],,4,,1>4[8:1],6,7,8,1-3[8:1]*-5[8:1],,1,,4h[2:1],,,{16}7,6,{4}5-1[8:1],5,{8}2,3,5,6h[8:1],,3,4,5h[8:1],,4,5,6h[8:1],,3,4,3h[8:1],6,5,4,3h[8:1],,5,4,3h[8:1],,6,5,6h[8:1],,3,4,3,2>5[8:1],5,6,7,8>3[8:1],7,6,5,4<7[8:1],3,2,1,8-4[8:1],,,{16}5,6,{2}7-2[2:1],,7b-2[8:1],{16}1,2,3,4,5,6,7,8,
{8}1-5[8:1],,,6-8[8:1],,,2-4[8:1],1,8,7-1[8:1],5,4,3-1[8:1]*-5[8:1],,3,,8-4[8:1],,,3<6[8:1],,,8pp3[2:1],,6h[2:1]/8,,,,,,{16}4,5,6,7,{8}8-4[8:1],,,3-1[8:1],,,7-5[8:1],8,1,2-8[8:1],4,5,6-8[8:1]*-4[8:1],,6,,{8}2-5[8:1],2,8,,7<4[8:1],7,1,{16}1,2,3v8[8:1],,,,3,,,,7,6,5,4,3,2,1,8,{8}7-5[8:1],4,7,4,7-3[8:1],4,7,4,7-1[8:1],4,7,4,7-5[8:1],4,7,{16}3,4,{8}2-4[8:1],5,2,5,2-6[8:1],5,2,5,2-8[8:1],5,2,5,2-4[8:1],5,2,{16}6,5,2-6[8:1],,7,6,2,,8,,2,3,4,5,6,7,8,1,2/7-3[8:1],,3,4,7,,4,,6,5,4,3,2,1,8,7,6h[8:1]/4h[8:1],,,7h[8:1]/5h[8:1],,,6h[8:1]/4h[8:1],,,2h[8:1]/5h[8:1],,,1s5[8:1],,1,,{1}1b>8[2:1]/5b,
{4}1b-5[8:1]/7,7-4[8:1]/1,2>5[8:1]/7,2/8-4[8:1],8/3-1[8:1],3/5-7[8:1],{16}5/2,,2,,3,,3,2,{4}1-5[8:1]/8,1/8-3[8:1],4-1[8:1]*-7[8:1],4,{16}8/2,,8/2,,,,7/1,,7/8,,5/6,,6/4,,6,7,{4}8-4[8:1]/2,2-5[8:1]/8,7<4[8:1]/2,7/1-5[8:1],1/6-8[8:1],6/4-2[8:1],4/1-5[8:1],1/3,{4}8-4[8:1]/1,8/1-6[8:1],5-8[8:1]*-2[8:1],5,{8}3/7,3/7,2/8,2/8,1w5[8:1],,1,,2-8[8:1],5,2V48[8:3],6,2/5-7[8:1],,,,2V84[4:1],6,2,,{16}6,5,,6/5,5/6,,,,{8}7-1[8:1],4,7V51[8:3],3,7/2-4[8:1],,,,7V53[4:1],3,7,,{16}1,8,7,6,5,4,3,2,1-6[8:1],,5,5,1,,4,,1>4[8:1],,5,,6,,7,,8-3[8:1],,4,4,8<5[8:1],,5,,,,4,,3,3,,7,7>2[8:1],,4,4,7,,3,,3<6[8:1],,1,,8,,7,,8,1,2,3,4[8:1],5,6,7,8b/4b,,,,2,1,2,1,
{4}3h[8:1]/8-4[8:1],3h[8:1]/8,3h[8:1]/7-5[8:1],3h[8:1]/7,3h[8:1]/8-4[8:1],3h[8:1]/8,3h[8:1]/7-5[8:1],{16}7/3,,3,2,{4}6h[8:1]/1-5[8:1],6h[8:1]/1,6h[8:1]/2-4[8:1],6h[8:1]/2,6h[8:1]/1-5[8:1],6h[8:1]/1,6h[8:1]/2-4[8:1],{8}2/6,7,{4}3h[8:1]/8-4[8:1],3h[8:1]/8,3h[8:1]/7-5[8:1],3h[8:1]/7,3h[8:1]/8-4[8:1],3h[8:1]/8,3h[8:1]/7-5[8:1],7/3,{8}7-2[8:1],,3-8[8:1],3-6[8:1],,,,,{16}2/5,,,,3,4,3,4,2-4[8:1]/5-7[8:1],,2/5,,,,,,5h[8:1]/6h[8:1],,,4h[8:1]/7h[8:1],,,5/6,,4h[8:1]/5h[8:1],,,3h[8:1]/6h[8:1],,,4/5,,4h[8:1]/3h[8:1],,,2h[8:1]/5h[8:1],,,5/2,,8h[8:1]/7h[8:1],,,8h[8:1]/7h[8:1],,,1/6,,2,5,,2,5,,3/4,,1,8,1,8,{32}1,2,3,4,1,8,7,6,{16}4,4,,5,5,,4/7,,2-5[8:1],,6v1[8:1],,2,,6,,3,4,3,4,{32}3,2,1,8,,,,,{16}8,1,8,1,{32}7,6,5,4,,,,,{16}2,1,2,1,2,1,2,1,2,3,4/8,7,6/1s5[8:1],2,3/7,6,5b/1b,,,,,,{32}8b/7b,1/6,2/5,,{8},,2-5[8:1],5>5[8:3],2b,,,,{16}1,8,7,6,4-8[8:1],3,2,1,
{1}8b/4b>5[2:3],{32}2,3,4>1[16:7],,,,,,{4},,,{8}5h[4:1],,3,3,6,4,5,3,7h[1:1],,,,{16}5,6,,8,1,2,3,4,{1}5b<4[2:3],{32}7,6,5<8[16:7],,,,,,{4},,,3h[2:1],,{16}6,5,4,3,2,1,8,7,{2}6h[4:1]/5,4h[8:1]/3h[4:1],{1}4>5[2:3],{32}2,3,4>1[16:7],,,,,,{4},,,5h[8:7],,3h[8:1],3h[8:1],{16}1,2,3,4,7pp2[8:3],6,5,4,,,,,,,,,{8}7h[8:3],6,5,4,6h[8:3],5,4,3,5,5,3,3,4,6,3,5,2h[8:3],3,4,5,3h[8:3],4,5,6,6,5,4,3,5,6,4,3,{1}2V41[4:5]/6V85[4:5],,4>5[4:5]/5<4[4:5],,1pp4[2:1]/5pp8[2:1],2qq7[2:1]/6>3[2:1],1s5[2:1]/7z3[2:1],1>8[2:1]/5s1[2:1],{16}5,,5,,3,,3,,6h[8:1]/4h[8:1],,,,6h[8:1]/4h[8:1],,,,3,5,3,5,3,,3,,6h[8:1]/4h[8:1],,,,6h[8:1]/4h[8:1],,,,3,,5h[4:1],,,,3,,6h[8:1]/4h[8:1],,,,6h[8:1]/4h[8:1],,,,2-4[8:1],,6-8[8:1],,2,,6,,1-5[8:1],,,,1,,,,3,,3h[8:1],,,,5,,3h[8:1]/5h[8:1],,,,3h[8:1]/5h[8:1],,,,6,4,6,4,6,,6,,3h[8:1]/5h[8:1],,,,3h[8:1]/5h[8:1],,,,6,,4h[4:1],,,,6,,3h[8:1]/5h[8:1],,,,3h[8:1]/5h[8:1],,,,1-3[8:1],,5-7[8:1],,1,,5,,4w8[8:1],,,,4,,,,
{1}2h[4:3]/6h[4:3],{8}1b-5[8:1],7b-3[8:1],1b,7b,{16}1,2,3,4,5,6,7,8,{8}1-3[8:1],6,1-5[8:1],7,1<6[8:1]*>4[8:1],,1,,1-4[8:1],8,1,7,1-5[8:1],8-6[8:1],1,8,2-4[8:1],1,8-4[8:1]/2,1,2-5[8:1]/8,1,2/7-5[8:1],8-4[8:1],7-3[8:1],8-2[8:1],7,8,4-6[8:1],3-7[8:1],4,3,{8}5b-8[8:1],,1,1b-4[8:1],,8,8bw4[8:1],,8b,,2-4[8:1],8,2b-6[8:1],{16}1,8,2w6[8:1],,8,,{4}2b,8w4[8:1],8b,1w5[8:1],1b,{16},,6,4,{8}5b,4/6,{16}5b,4,3,2,{8}1-6[8:1],5,1>3[8:1],4,1-5[8:1],5,1,7,8>3[8:1],4,8-6[8:1],5,8-4[8:1],4,8/2,2,1-4[8:1],4-2[8:1],1,7V53[4:1],8,7,1w5[8:1],,{1}1b>8[2:1],{16}8h[16:1]/3b,4,5,8h[16:1]/3b,4,5,8h[16:1]/3b,4,5,8h[16:1]/3b,4,5,6b/7b,,8b/4b,,2,8,2,8,1,7,1,7,1,2,3,4,{24}1,8,7,6,5,4,{16}2,1,2,1,3,8,3,8,4,5,6,7,8,1,2,3,6,5,6,5,4/7,,1/2,,{24}8,7,6,2,3,4,{32}7,6,5,4,3,2,1,8,{16}7b/4,3,2,1,7,6,5,4,8,1,2,3,5,6,7,8,1,2,3,4,2,3,4,5,3,4,5,6,5,6,7,8,1,2,3,4,5,6,7,8,1/6,5,4,3,2,1,8,7,6b,5,3b,4,7,6,2b,3,8b/4b,,3b/7b,,2b/6b,,1h[16:1]/5h[16:1],,7,6,5,4,3,2,1,8,7/2,3,4,5,6,7,8,1,2/8,7,6,5,2,3,4,5,8,7,6,5,1,2,3,4,6,5,6,5,8,1,8,1,{8}2h[8:1]/7,8,4h[8:1]/6,8,6h[8:1]/3,1,5h[8:1]/3,1,8-3[8:1]/4-7[8:1],1/5,8/4,,
{16}1,8,1,8,{24}1,2,3,8,7,6,2,3,4,7,6,5,4b/3,,,,,,1b,2,3,7,6,5,3,2,1,5,6,7,2,3,4,8,7,6,5b/4b,,,,,,1,2,3,4/1,8,7,6/1,2,3,4/1,8,7,{16}6,4,5,4,3b/6b,,,,8,7,1,6,2,5,3,4,2,1,3,8,4,7,5,6,{32}2,3,4,,{16}7,8,7,8,7,8,7,8,{32}6,5,4,,1,2,3,,{16}8,1,8,1,{32}7,6,5,,2,3,4,,{16}1,2,1,2,{32}8b,7,6,,3b,4,5,,{16}8,4,7b,3,6,2,5b,1,4,8,4b,8,5,1,6b,2,7,3,{16}8b,4,8b,4,8b,4,8b,4,{32}7b,6,5,4,3,2,1,8,2b/7,3,4,5,6,7,8,1,{1}7s3[2:3]/2z6[2:3],,{8}3,5,4,6h[4:1],1,2,3,4,2{2}5<8[4:1],1>4[4:1],{4}7>2[4:1],{16},,5,4,{4}3<6[4:1],,1-5[4:1],,,{13},{7}3,4,1h[3:2],,,,,,,,{14},5h[7:4],{7},,,,,,,,,,{24},3,4,5,6<3[1:2],
