&title=万古生香
&artist=litterzy/洛天依
&first=0
&des=队友写的全都是神谱
&clock_count=4
&lv_5=13+
&des_5=队友写的全都是神谱
&inote_5=(164)
{1},,,
{8}4>5[8:9]/5,,,,E8,,,,4,,,,E3,,,,5q3<5[8:6]/3,,,,A8,,,,6,,6,,E2,,,,
4/5<4[8:9],,,,E2,,,,5,,,,E7,,,,8p2<1-5[16:15]/4,,,,A3,,,,3,,3,,E8,,,,
7-4[16:4]/4,,,,E2,,,,3h[4:1]/5h[4:1],,,,B7/B8,,,,1>4[16:5]/5,,,,
B6,,,,4/6,,4/6,,B1/B2,,,,
8-4[16:4]/4,,,,A2,,,,2h[4:1]/6h[4:1],,,,E8/A8/E1,,,,4-8[16:4]/8,,,,E7,,
1x-7-2-6-3-5[16:12],
{8},,,,,,
{96},,,,,,,,,,
{8},,5h[8:2]/6h[8:2],,,,3h[8:2]/4h[8:2],,,
5<4[16:7]/6h[8:5],,,,,,7,3,5,2h[4:1]/4h[4:1],,,,5h[4:1]/7h[4:1],,,
2h[8:4]/4,,3,1s5[32:9],8,,,,,
{16}7b-4[8:1]/4,,,,1,,,,2,,5,3,4,,1-5[8:1]/8,,,,1,,6,,,,
2h[8:1],,4h[8:1],,6h[8:1],,8h[8:1],,1>4[8:1],,,,6,,8<5[8:1],,,,
4,,3pp7[16:5],,2h[8:3],,,,,,,,,,1h[8:1],,5h[8:1],,3h[8:1],,7h[8:1],,
1,8,1,8,1,8,1,8,2,7,2,7,2,,3b<6[8:1]/6b,,,,3,,8,,,,
1h[8:1],,5h[8:1],,7h[8:1],,3h[8:1],,5-8[8:1],,,,3,,4-1[8:1],,,,6,,5,,
4b>5[16:5]/1h[2:1],,,,,,,,,,3,,3,,4/2,,,,
{96},,
{8}1/5,1h[8:5]/5h[8:5],,,,,,1-4[64:5],,5-8[64:5],,3-6[64:5],,,7,,4/8,8h[8:5]/4h[8:5],,,,
,,4-1[64:5],,8-5[64:5],,2-6[32:3],,7,7,,4/8,8h[8:5]/4h[8:5],,,,,,
8-3[64:5],,4-7[64:5],,1-5[32:3],,,4,,2/6,2h[8:5]/6h[8:5],,,,,,2-6[32:3],,5,5,,
8hx[16:3],
{16}6x,5x,4x,,,,2/6,,1,,1,,5,,5,,3,,3,,4-1[32:3],,,,5,,5,,,,2-6[32:3],,7,,7,,
,,1,,1,,5,,6/4,,7,,7,,3,,4,,2h[16:2],,4h[16:2],,3h[16:2],,5h[8:1],,2h[8:1],,
4h[16:2],,3h[8:1],,5h[8:1],,2,,8,,8,,4,,4,,6,,6,,5-8[32:3],,,,4,,4,,,,
7-3[32:3],,3,,3,,,,2/4,,3,,6/4,,5,,3/7,,,,6<4[32:15]/5,,5/6q4[32:11],,,,,,,,,,,,,,2/6,
,,,
1>5[16:4]/7,,,,,,,,B6/E6/A6,,,,,,,,8<4[16:4]/2,,,,,,,,B2/E3/A2,,,,1xh[4:1],,,,
7V51[4:1],,7,,,,,,A3/E3/B3,,,,,,,,3V15[4:1]/5,,3/5,,,,,,E7/B7/A7,,,,8h[4:1],,,,
4,,4h[4:1],,,,6,,6h[4:1]/E1/B8/B1,,,,,,,,1,,1h[4:1],,,,5,,B7/A7/E7/B3/E3/A3,,,,,,,,
26,,2h[4:1]/6,,,,4h[4:1],,,,6h[8:4],,1,,2h[8:2],,
,,,,5>2[8:1],,,,1<6[8:1],,,,
4w8[16:2],,,,4b/Cf,
{32},,,,,,
{16}3/5,,3/5,,,,
2-6[32:4],,6-4[32:3],,2,,7,,8-4[8:1],,4,,8,,3<6[8:1],,1/2,,3b/6b,,,,
7-3[32:3],,,,3,,1x-5[32:3],,,,5<4[16:7],,7,,1x/5x,,,,,,,,,,5,,5,,3/7,,,,
1V73[8:1],,,,7,,,,5V37[8:1],,5,,3,,,,
1x>3[8:1]/8xq4[8:1],,,,,,,,1xp5[8:1]/8x<6[8:1],,,,,,,,
4b>1[8:1],,,,6,,4bx<7[8:1],,,,8>6[4:1],,1,,2hbx[4:1],,,,,,1-6[8:1],,1,,5-2[8:1],,5,,
8w4[8:1],,,,8b/Cf,,,,2/6,,2/6,,,,
7-3[32:4],,3-5[32:3],,7,,2,,1-5[8:1],,5,
,1,,6>3[32:4],,7/8,,
3b/6b,,,,
2-6[32:3],,,,6,,8-4[32:3],,,,4>5[16:7],,2,,4x/8x,,,,,,,,,,
3/5,,3/5,,2/6,,2/6,,
7bv6-4[32:7]/1b,,,,,,,,E2/B1/B2/A1/A2,,,,,,,,2bv3-5[32:7]/8b,,,,,,,,
8h[8:1],,4,,8,,2/6,,3-5[32:4],,,,7,,8-4[32:4],,,,8/4,,,,2-6-4[4:1],,,,
7,,8,,1,,1>4[8:1]*<6[8:1],,,,1b,,,,7-4[32:3],,,,1-5[32:3],,1,,,,6-1b[32:3],,,,
6bV84[32:9]/1bV74[32:9],,,,,,,,,,{96},
{16}3,5,3,5,3,5,3,5,2-4[16:1],,,,8,,,,5/1-5[32:3],,1,,,,2h[4:1],,,,3x,4x,5x,,
7x/4x,,7x<5[16:1]/4x>2[16:1],,,,,,,,
7-5[16:1],,,,2,,,,4/8-4[32:3],,8,,,,7h[4:1],,,,6x,5x,4x,,
2x/5x,,5x<7[16:1]/2x>4[16:1],,,,,,,,8hx[8:1]/4hx[8:1],,,,7h[8:1],,3h[8:1],,
5h[8:1],,1h[8:1],,,,8-4[8:1]/2,,8,,2,,3,,,,4-7[8:1]*-1[8:1],,5/3,,4b,,,,
2h[8:1],,4h[8:1],,3h[8:1],,7h[8:1],,5h[8:1],,6h[8:1],,3,,1/8,,,,
2h[8:1],,6h[8:1],,4h[8:1],,8w4[8:1],,2/6,,8b,,,,
3/5,,,,2,4,2,6,4,6,1,4,1,7,4,7,5,1,5,1,5,1,5,1,5w1[8:1],,,,5b,,,,
3/1x,,3,,3,,3/5x,,3,,3,,3/7x,,4b/5b,,6/2x,,6/2x,,6,,6/8x,,6,,6/4,,5/3,,2/4,,
3b/1b>1>2>3<4<5<6<7>8b[8:19],,,,,,,,{1},Ch[16:18],
{4},,5p4[2:1],,,1p8[2:1],,5,4>5[2:1],,,1b>5[16:6]*<5[16:6],,,3V52[2:1],,,7V15[2:1],,
,3V51[2:1],,
{8}8,7,6pp3[2:1],,,,,,1>5[384:174],,,,,,1b>5b[384:174],,,,1s5<8[8:7],,8bz4>1b[8:5],,,,,,,,,,
4/2,,5/7,,1/8,,2h[8:6]/6h[4:3],,,,,,,,3h[8:2]/7h[4:1],,,
4/8,,4/8,3/7,2/6,3h[4:1]/5h[4:1],,,6/4,,3/7,8/2,4/5,,7x,3x,5x,
1x<6[8:1]*>4[8:1],,1b,,2qq5[16:5]/7,,,,B6/E6/A6,,7,,8qq4[16:5]/3,,3,,B2/E3/A2,,
1h[4:1],,
{24}7x,6x,5x,4x-8[16:1],,,1x,,,1x,2x,3x,4x-8[16:1],,,7x,,,7x,6x,
5x,4bx-8b[12:1],,,,,,{48},,,
{16},3,,,,2,6,3,7,
{32}4bw8[8:1],5,6,7,8,1,2,3,4b/Cf,,,,,,,,
2/6,,,,2/6,,,,{16},,1-5[32:4],,5-3[32:3],,1,,6,,7-3[32:3],,8/1,,3b/7b,,
2-5[32:3]*-6[32:3],,1,,2b,,,,4x>8[32:8],,,,8q5[4:1],,8,,,,6<4[16:6],,7,,
8h[16:6],,,,,,,,,,4/1,,4/8,,4/7,,4/6,,5b/4bV25-1[16:5],,,,,,,,E7/A7/B7,,,,6,,,,
8V61-5[16:5]/4,,,,,,,,2,,4,,6,,8,,2-5[8:1]/6,,,,2,,8-4[8:1],,,,8/4,,,,
2-6-3[32:6]/6,,,,2,,7,,8,,1<6[8:1]*>4[8:1],,,,1b,,,,5-8[8:1]/3,,,,5,,
2-6[8:1],,,,2/6,,,,7V15[32:5]/5,,,,4,,2,,8,,8-5[8:1]*-3[8:1],,1/7,,8b,,,,2q6[8:1]/6,,,,
2,,7<4[8:1],,,,7/3,,,,1>5[8:1]/5,,,,1,,7,,1,,1>4[8:1]*<6[8:1],,,,1b,,,,
5-1[32:3]/2,,,,5
,,3p5b[4:1],,,,5<3b[32:15],,,,4hb[2:1],,,,,,,,,,2h[8:1],,4h[8:1],,5h[8:1],,7,,
8b-4[8:1]/1,,,,3,,,,2,,5,3,4,,1-5[8:1]/8,,,,1,,6,,,,
2h[8:1],,4h[8:1],,6h[8:1],,8h[8:1],,1b>4[64:7],,,,6,,8b<5[64:7],,,,4,,3qq6[16:5],,
2hbx[8:3],,,,,,,,,,1h[8:1],,5h[8:1],,3h[8:1],,
7h[8:1],,2,1,2,1,2,1,2,1,3,8,3,8,3,,4bqq5[32:7]/7b,,,,4,,8,,,,1h[8:1],,5h[8:1],,
7h[8:1],,3h[8:1],,1b-5[8:1],,,,1,,8b-4[8:1],,,,8/4,,2,,8xhb[8:3]/3bxq5[4:1],,,,,,,,,,
1,,1,,73,,,,,
{96}6h[2:0],,,,,,,,,,,,,5p4[16:27],,,,,,,,,,,,4h[2:0],,,,,,,,,,,,3h[2:0],,
