&title=Diomedes
&artist=Xeon
&first=-2.01
&des=StR-1
&lv_4=14+
&lv_5=14+
&inote_5=(190){4},,,,
{8},,,,,,,,
5V31[1:1],,,,,,,,8V64[1:1],,,,,,,,
3V17[1:1],,,,,,,,{32}6V42[1:1],,,,,,,,E7,B6,,,,,,,E8,,,,,,,,E1,,,,,,,,
{8}1xV35[1:1],,,,,,,,6V82[1:1],,,,,,,,
3V57[1:1],,,,,,,,{32}8-2>4[1:1],,,,,,,,,,,,B8,B7,,,,,,,6,,,,5v8<6[4:1],,,,,,,,
{16}
,,,,,,5h[4:1],,,,3h[8:1],,4,,,,
2h[4:1],,3,,4,,5,,,,6h[8:1],,5,,,,
2h[4:1]/B4,,,,5,,6,,,,4/7,,,,5h[8:3]/8,,
,,,,6,,7,,{12}8,6,7,5,6,4,{32}B7,C,B3,,,,,,
{8},4h[2:1],,2,,6,{32}E5,E4,E3,,,,,,
{8},8h[2:1],,7,1,2,{32}3h[2:1]/E7,E6,E5,,,,,,
{8},,2,1,8,7q4q2[8:5],,2,3q8q6[4:1],,,,,,
{16}
1hx[4:1],,,,E5,B5,B6,E7,3hx[4:1],,,,E8,B8,B1,E2,
5hx[4:1],,,,E3,B3,B4,E5,7hx[4:1],,,,E6,B6,B7,E8,
1,,2,,3,,4,,3/5,,6,,7h[4:1],,,,
5,,,,4,,3,,2h[4:1],,6,,5,,,,
8hx[4:1],,,,E5,B4,B3,E3,6hx[4:1],,,,E2,B1,B8,E8,
4hx[4:1],,,,E7,B6,B5,E5,2hx[4:1],,,,E4,B3,B2,E2,
8,,7,,6,,5,,6/4,,3,,2h[4:1],,,,
4,,,,5,,6,,7-4[8:1]b/4,,3,,2b,,,,
1>4[8:1],,,,5,,6<1[8:1],,,,2,,3<6[8:1],,,,
7,,8,,1v6[8:1]*-6[8:1],,,,1v4[8:1]*-4[8:1],,,,,,,,
8<5[8:1],,,,4,,3>8[8:1],,,,7,,6>3[8:1],,,,
2,,1,,8v3[8:1]*-3[8:1],,,,8v5[8:1]*-5[8:1],,,,8b,,,,
1>4[8:1],,,,5,,6,,7>2[8:1],,,,3,,4,,5<8[8:1],,,,
1,,2,,3>1-7<5[8:1],,,,,,,,
8b-3[8:1],,,,4,,2b-5[8:1],,,,6,,4b-7[8:1],,,,
2x,3x,4x,5x,6x,7x,8x,1x,2-5>4-8[4:1]b/6-1[8:1],,,,,,,,
A6/B6f/E6/E7,,,,,,5/7h[4:1],,,,4h[4:1],,,,5,,
3-5[8:1]/5,,,,,,6h[4:1],,,,8,,1,,2,,
3h[1:1],,,,B5,,B6,,,,B7/B8,,,,B3/E3/E4,,
{32},,
,,6h[8:1],,,,E8,B8,
,,6h[8:1],,,,E2,B2,
,,6h[8:1],,,,E4,B4,,,,,,,
{16}
7h[8:5],,,,6,,5>1-7[8:3],,,,,,,,,,
5h[4:1],,,,,,,,4,,,3/5,,,2/6,,
1h[8:3]/7,,,,,,8>6[4:1],,,,,,,,,,
{12}
1x,2,3,7x,6,5,2x,4,3,6x,4,5,
{16}1bv6[8:1],,,,,,5h[4:1],,,,8,,,,1,,
2>5[8:1],,,,,,7,,,,7,8,1,,3,,4h[1:1],,
,,B4,,B3,,,,B2/B1,,,,B6/E7/E6,,
,,2h[8:1],,E8,,2h[8:1],,E6,,2h[8:1],,E4,,,,
1h[8:5],,,,3,,4<8-2[8:3],,,,,,,,,,
3h[2:1],,,,,,,,8,,7,,6,,5,,
4h[2:1],,,,,,,,5,,6,,7,,8h[4:1],,,,B2,,B3,,,,4-8[8:1],,,,,,,,
{32}7x/1x,6x/2x,5x/3x,4x,,,,,
{16}4hx[16:1],,4hx[16:1],,4hx[16:1],,4hx[16:1],,
3hx[16:1]/5hx[16:1],,3hx[16:1]/5hx[16:1],,
2,6,2,6,1,7,1,7,8,8,8,8,1bx,,,,
{32}2x/8x,3x/7x,4x/6x,5x,,,,,
{16}5hx[16:1],,5hx[16:1],,5hx[16:1],,5hx[16:1],,
6hx[16:1]/4hx[16:1],,6hx[16:1]/4hx[16:1],,
7,3,7,3,8,2,8,2,1,1,1,1,8bx,,,,
{32}7x/1x,6x/2x,5x/3x,4x,,,,,
{16}8hx[16:1],,8hx[16:1],,8hx[16:1],,8hx[16:1],,
7hx[16:1]/1hx[16:1],,7hx[16:1]/1hx[16:1],,
6,2,6,2,5,3,5,3,4,4,4,4,1bx,,,,
{32}2x/8x,3x/7x,4x/6x,5x,,,,,
{16}1hx[16:1],,1hx[16:1],,1hx[16:1],,1hx[16:1],,
2hx[16:1]/8hx[16:1],,2hx[16:1]/8hx[16:1],,
3,7,3,7,4,6,4,6,5,5,5,5,8bxw4[8:1]b,,4bx-1>3[4:1]*-7<5[4:1],,
{12}
,,,,,,3,4,3,5,4,5,
2h[1:0],2h[1:0],2h[1:0],2h[1:0],,4,
6h[1:0],6h[1:0],6h[1:0],6-8-2-4[4:1],6h[1:0],6h[1:0],
,,,C,,,1,1,5,2,2,5,3,3,5,4,4,5,6h[1:0],,6h[1:0],7h[1:0],,7h[1:0],
{32}
1v4[8:1],2,3,4,5,6,7,8,
{12}1,,,6h[1:0],,6h[1:0],2h[1:0],,2h[1:0],4,3,3,5,3,3,6,3,3,7,3,3,
{32}
8v5[8:1],7,6,5,4,3,2,1,
{12},,,1h[1:0],1h[1:0],1h[1:0],1h[1:0],1h[1:0],1h[1:0],
2x/8x,2x/8x,2x/8x,2x/8x,,3hx[1:0]/7hx[1:0],
6x/4x,6x/4x,6x/4x,6x/4x,,5h[1:0],
{8}
5-3v6-4>3>6>5[4:15]b,,,,E1,,,,,,,,E7,,,,,,,,E5,,,,,,,,E3,,,,
1-6-3-8<6>3>1[4:13]b,,,,E5,,,,,,,,E7,,,,,,,,E1,,,,,,,,E3,,,,
{16}
1h[8:1]/7h[8:1],,,2h[8:1]/6h[8:1],,,3/5,,
4q1[8:1]*p7[8:1],,,,E5/B4f/E4,,,,
2>5[4:1],,,,5<8[4:1],,,,8>6[8:3],,,,4,,,,
7-4[8:1],,,,7,,1<6[8:1],,,,1>4p6[4:1],,,,5h[8:7],,,,,,
A7/B7,,,,A1/B1,,,,A3/B3,,,,
8h[8:1]/2h[8:1],,,7h[8:1]/3h[8:1],,,6/4,,
5p8[8:1]*q2[8:1],,,,E5/B5/E6,,,,
7<4[4:1],,,,4>1[4:1],,,,1<3[8:3],,,4,,,2,,
1q5[8:1],,,,1,,7q3-5<1[2:1],,,,7,,,,2h[4:1],,,,
,,3x-5[8:1],,7x-1[8:1],,3x>8[8:1],,7x-4[8:1],,3x<6p2[2:1],,7x,,
3x,,,,,,1<3[4:1],,,,1,,,,2,,
1p4>2[4:1],,,,,,5pp1[4:1],,,,5,,4,,3,,
2-4[8:1],,,,2,,8>3[8:1],,,,8<5q3[4:1],,,,4h[8:7],,
,,,,A2/B2,,,,{12}E1,E8,E7,E6,E5,E4,
{16}2x>5[8:1],,,,2,,6-1[8:1],,,,6,,5,,,,
7x<4[8:1],,,,7,,3v8[8:1],,,,3,,4>5[8:5],,,,
4,,,,,,5p4[8:3],,,,,,4>5[4:3]b,,,,
2h[4:3],,,,,,,,,,,,,,,,
1>4[8:1],,,,7,,6<1[8:1],,,,4,,3,,2,3,
4>1[8:1],,,,6,,7<4[8:1],,,,4,,3,,2,1,
8<5[8:1],,,,2,,3>8[8:1],,,,5,,6,,7,6,
5<8[8:1],,,,3,,1h[8:5],,{12}B2,B3,B4,B5,B6,B7,
{16}
8x>3[8:1]b,,,,8,,4-1[8:1]b,,,,4,,6,,5,,
1<6[8:1]b,,,,1,,5-8[8:1]b,,,,5,,2,,3,,
4,5,6,7,8,1,2,3,4/6,7,8,1,2,3,4,5,
1/6,2,3,4,7,6,5,4,
{12}2,4,3,5,4,5,
{16}
2-6[8:1]/6-4[8:1],,,,,,,,7,,8,,1/6,,2,,
7-3[8:1]/3-5[8:1],,,,,,,,2,,1,,8/3,,7,,
6bv1[8:1]/4bv1[8:1],,,,,,,,
2-6[16:1]b/8,,,5<8[16:1]b,,,5,,
1,,2/8,,3/7,,4/6,,5,4,3,2,1,8,7,6,
5-7[8:1],,,,5,,,,2,8,2,8,3,1,3,1,
4v1[8:1],,7,6,4,,,,
6v1[8:1],,3,4,6,,2,3,4,5,6,7,8,1,2,3,
8,7,6,5,4,3,2,1,
8<5[8:1]/5,,,,8/2>8[4:1]b,,,,,,,,
{32}D1,A1,D2,A2,D3,A3,D4,A4,
{16}A5/E5/D5/B5f/8h[16:3],,,4,,,2v3[8:1]/6v5[8:1],,3>8[8:1]/5<8[8:1],,,,,,,,
{32}1/7,2/6,3h[16:3]/5h[16:3],,,,,,,,,,1/7,2/6,3/5,4h[32:9],,,,,,,,,{16}8,,,,
2/5,,3,4,3,,2,,1/5,,8,1,2,3,4,5,
6x,8,6,8,5x,7,5,7,4x,6,4,6,3x,,2,,
{16}1h[16:3],,,5,,,7v6[8:1]/3v4[8:1],,6<1[8:1]/4>1[8:1],,,,,,,,
{32}8/2,7/3,6h[16:3]/4h[16:3],,,,,,,,,,8/2,7/3,6/4,5h[32:9],,,,,,,,,{16}1,,,,
7h[4:1]/2,3,4,5,6,,8h[4:1]/1,2,3,4,5,,4/8,3/7,2/6,,
2h[4:1]/7,6,5,4,3,,1h[4:1]/8,7,6,5,4,,5/1,6/2,7/3,,
{16}8h[16:3],,,4,,,2v3[8:1]/6v5[8:1],,3-8[8:1]/5-8[8:1],,,,,,,,
{32}2/6,,,,3,,5,,3,,,,6/4h[4:1],,,,,,,,7,,6,,{16}5,,3,,
2x/4x,,E1/A1/B1/5x,,,,5x/7x,,4/E1/A8/B8,,,,7,6,5,4,
3x,1,3,1,4x,2,4,2,5x,3,5,3,6x,,7,,
{16}1h[16:3],,,5,,,7v6[8:1]/3v4[8:1],,6-1[8:1]/4-1[8:1],,,,,,,,
{32}7/3,,,,6,,4,,6,,,,3/5h[4:1],,,,,,,,2,,3,,{16}4,,6,,
7/8,1,2,3,{12}4/5,6,7,2/8,3,4,5/7,8,1,
{16}2/3,4,5,6,8,7,6,5,3,2,1,8,5,6,7,8b,
{16},,,,4hx[16:1],,4hx[16:1],,
3hx[16:1]/5hx[16:1],,3hx[16:1]/5hx[16:1],,
2hx[16:1]/6hx[16:1],,2hx[16:1]/6hx[16:1],,
1,7,1,7,8,8,8,8,1,1,1,1,1bx,,,,
{32}2x/8x,3x/7x,4x/6x,5x,,,,,
{16}5hx[16:1],,5hx[16:1],,
6hx[16:1]/4hx[16:1],,6hx[16:1]/4hx[16:1],,
7hx[16:1]/3hx[16:1],,7hx[16:1]/3hx[16:1],,
8,2,8,2,1,1,1,1,8,8,8,8,8bx,,,,
{32}7x/1x,6x/2x,5x/3x,4x,,,,,
{16}8hx[16:1],,8hx[16:1],,
7hx[16:1]/1hx[16:1],,7hx[16:1]/1hx[16:1],,
6hx[16:1]/2hx[16:1],,6hx[16:1]/2hx[16:1],,
5,3,5,3,4,4,4,4,5,5,5,5,1bx,,,,
{32}2x/8x,3x/7x,4x/6x,5x,,,,,
{16}1hx[16:1],,1hx[16:1],,
2hx[16:1]/8hx[16:1],,2hx[16:1]/8hx[16:1],,
3hx[16:1]/7hx[16:1],,3hx[16:1]/7hx[16:1],,
4,6,4,6,5,5,5,5,4,4,4,4,3h[16:1],,3h[16:1],,
6h[4:1],,,,8,,,,4,,3,,6,,5,,,,2,,,,5,,1,,3,,6,,5,,,,
5,,3,,4,,,,7,,,,5,,,,2,,,,5,,3,3,4,4,5,5,4,4,
3h[4:1],,,,1,,,,5,,6,,3,,4,,,,7,,,,4,,8,,6,,3,,4,,,,
4,,6,,5,,,,2,,,,4,,,,7,,6h[4:1],
E
