&title=Hypernaid
&artist=KATOMORI
&first=-0.07
&des=Voranger
&lv_5=14
&des_5=Voranger
&inote_5=
(150){4},{16},,5,4,{8}6,6,3,3,
{4}5h[4:1],{8}2,3h[8:3],,,6,5h[8:3],
,,{4}4,B7/B6,B2/B3,
{16}E8,,,E1,,,{8}E2,,B4,B3,B2,
B1,B8,B7,{16}4,5,{8}3,3,6,6,
{4}4h[4:1],{8}7,6h[8:3],,2,3,4h[8:3],
,,{4}5,B3/B2,B6/B7,
{16}E4,,,E5,,,{8}E6,,2,3,4,
5,6,7,{16}2,1,{2}3h[2:1]/8h[2:1],
{8},6/5,,3/2,,,,7h[4:1]/8h[4:1],
,,{4}6/5,{2}5h[2:1]/2h[2:1],
{8},8/1,,6/5,,,,8h[4:1]/3h[4:1],
,,{4}5/4,{8}6h[8:3],{16}B1,C,{4}B5,
{8}3h[8:3],{16}B8,C,{4}B4,{8}5h[8:3],{16}B2,C,{4}B6,
1h[4:1],6b,7x/8x,{16}4,5,4,5,
{4}2x/1x,{8}6,6,{16}4bx,5,4,5bx,4,5,4bx,5,
{4}4bx-7[16:1]*-1[16:1],A4/D5/D4,{8}6/5,2,{16}7/4-2[8:1],7,{8}1,
4/5-1[8:1],6,5/4,2,3/4,7,{16}2/5-7[8:1],2,{8}8,
5/4-8[8:1],3,4/5,7,6/5,1,{16}5/4-1[8:1],5,{8}2,
4/5-8[8:1],6,5/4,2,4/3,7,6/5,2,
8/3,1/6,5/4,7/2,4-7[16:1]/3-8[16:1],2/5,{4}3b/4b,
{8}5/4-8[8:1],3,4/5,7,6/5,2/8,{16}7/4-2[8:1],7,{8}1,
4/5-1[8:1],6,5/4,2,5/4,7,5/4,2,
4/3,5/2,1/6,7/8,{16}1,2,3,4,5,6,7,8,
{4}1w5[8:1],A1/D1/D2,{16}E6,B5,B4,E4,E2,B1,B8,E8,
{8}E6,E5,{16}B1,B2,B3,B4,{8}A6,A7,A8,A1,
{4}A2,{8}C,{16}E4,B4,E7,B7,B8,E1,E3,B3,B4,E5,
{8}E7,C,E3,E5,6/2,6/2,7/3,3/7,
{4}8/4-8[8:1],5h[4:1],{6}1,{12}3,3,4,2,
{6}5h[6:1],{12}4,4,5,3,{6}6h[4:1],{12}D2,D1,D8,D7,
D6,D5,D4,D3,D2,D1,{6}6h[6:1],{12}5,6,4,5,
{6}3h[6:1],{12}5,4,6,5,8,7,6,5,4,3,
{4}2v5[12:1]*v7[12:1],2,6h[8:1]/4>2[8:1],5h[8:1]/4-8[8:1],
7h[8:1]/4-1[8:1],{8}6/4,6,{4}3h[8:1]/5-7[8:1],4h[8:1]/5-1[8:1],
2h[8:1]/5-8[8:1],{8}3/5,3,{4}5-7[8:1]/4-8[8:1],4-2[8:1]/5-1[8:1],
5-7[8:1]/4-8[8:1],5/4,{8}3/4,3,6/5,6,
2/1-5[16:1],8/7,{4}8/1,{8}6,6,6,6,
6/5,6/4,6/3,6/2,1,1,1,1,
1/8,1/7,1/6,1/5,{16}4,3,4,3,4,3,4,3,
{32}4,5,6,7,8,1,2,3,4,5,6,7,8,1,2,3,{2}4/Cfh[4:3],
{32},,,,B5/B1,B2,B6,B3,{4}B7,{32}8bx/4bx,7x/3x,{16}6x/2x,{32},,,,1bx/5bx,2x/6x,{16}3x/7x,{32},,,,8bx/4bx,
7x/3x,{16}6x/2x,,,{8}5bx/1bx>4b[8:1],4bx-8b[8:1],8bx<5b[8:1],5bx-1b[8:1],1bx>4b[8:1],4bx,
{16}6x,,,7x,,,{8}8x,{2}2bxs6[8:3]/1bxz5[8:3],
{16},,,,3x/7xh[4:3],2x,1x,8x,{12}6x,5x,4x,3x,2x,1x,
{2}8x-3[8:1],{32}2x/7bx-2[8:1],6x,{16}5x,{8}1x,2x/7x-4[8:1],{16}3x,4x,
{8}7x-1[8:1],3x,7x,2x,{32}7x/1x-3[8:1],6x,{16}5x,{8}8x,7x/1x-5[8:1],{16}6x,5x,
{8}1x,6x,{16}5x,3x,5x,3x,{4}4xh[8:1]/6xh[8:1],8xh[8:1]/2xh[8:1],
{8}5x/4x,6x/3x,7x<1[2:1]/2x>8[2:1],1x/8x,{2}7bx/2bx,
{4},8b/1b,{8}6/5,8,{16}3,4,1,4,
{8}3,6/5,8/7,2/1,3/4,1,{16}6,5,8,5,
{8}6,3/4,{4}1/2,{48}3bh[8:1]/E8,B8,B1,E2,,,,,,,,,2bh[8:1]/E6,B5,B4,E4,,,,,,,,,3bh[8:1]/E8,
B8,B1,E2,,,,,,,,,2bh[8:1]/E6,B5,B4,E4,{96},,,,,,,,,,,,,,,,E7/E3,B7,B3,B8,B4,E1,{16}E5,{96},,,,,,,,,,,,E3/E7,B2,B6,B1,B5,E1,{16}E5,,,{8}5x/6x,
7x/4x,{4}3x/8x,{8}7h[16:1]/5bh[16:1],6h[16:1]/3h[16:1],4bh[16:1]/2h[16:1],1h[16:1]/7h[16:1],
1h[16:1]/4bh[16:1],6h[16:1]/5h[16:1],3h[16:1]/2bx-4b[16:1],8h[16:1]/7h[16:1],6bxh[16:1]/2bx-5b[16:1],6bxh[16:1],7bxh[16:1]/2bx-6b[16:1],7bxh[16:1],
8bxh[16:1]/2bx<4b[4:1],8bxh[16:1],{4}2bx/1bx,{2}C,
E7/E3,{4}E8/E1/E2,E6/E5/E4,
{2}E7/E3/Cf,{8}6h[2:1],5,4,3,
2,{16}3,3,,5,{8}5,3h[2:1],4,5,6,
7,6,5,4,{4}5/3,6/4,
{2}5-8[8:1]/4-1[8:1],7/2,
{4}8bs4[8:1]/1bz5[8:1],{16}1/8,C,,,{2}5xh[4:1]/6xh[4:1],
4xh[4:1]/3xh[4:1],5xh[4:1]/4xh[4:1],
{8}6x/3x,3x/6x,{16}5x,4x,{8}5x,6/4,2/1,{16}6,5,8,5,
{8}6,8/2,4/3,7/1,3/5,7/8,{16}3,4,1,4,
{8}3,1/7,5/6,4/2,4-7[16:1]/3-8[16:1],5/2,{4}4b/3b,
{8}1/7,5/6,2/8,6/4,5/3,2/1,{16}6,5,8,5,
{8}6,8/2,4/3,5/6,7/4,1,{16}4,3,7,3,
{8}4,1/2,6/4,8/7,{16}1,2,3,4,5,6,7,8,
{4}1w5[8:1],D1/A1/D2,{8}5bxh[16:1],5bxh[16:1],8h[16:1]/2h[16:1],6h[16:1]/4h[16:1],
{16}2,5,4,5,8,6,5,6,{8}2bh[16:1],2bh[16:1],5h[16:1]/7h[16:1],3h[16:1]/1h[16:1],
{16}7,5,6,5,{24}8,1,2,3,4,5,{8}6bh[16:1]/2bh[16:1],2bh[16:1]/6bh[16:1],5h[16:1]/3h[16:1],7h[16:1]/1h[16:1],
{16}2,4,3,5,1bxh[32:1],7,8,6,2,2,8,8,6,6,4,4,
1,2,3,4,5,6,7,8,{8}1bh[16:1],1bh[16:1],4h[16:1]/6h[16:1],2h[16:1]/8h[16:1],
{16}6,4,5,4,1,3,4,3,{8}8h[16:1],8h[16:1],5h[16:1]/3h[16:1],1h[16:1]/7h[16:1],
{16}5bx,3xh[16:1],2bx,3xh[16:1],4bx,3xh[16:1],1bx,3xh[16:1],{4}8bV64[8:1],{32}A3,B3,C,B1,{8}A1,
{4}8V24[8:1],{32}A5,B5,C,B7,{8}A7,8xh[16:1]/4xh[16:1],7xh[16:1]/3xh[16:1],6xh[16:1]/2xh[16:1],1xh[16:1]/5xh[16:1],
{16}8xq5[8:1]/4xq1[8:1],,,,,C,,,1/5,8/4,7/3,6/2,1,8,7,6,
{1}7-3[8:1]/5-1[8:1],
E
