&title=Play The Future
&artist=Urbatronic Chopsticks
&first=0
&des=Kurene_Saka
&lv_5=13
&inote_5=(128)
{1},
{2}8-5[8:3],6-3[8:3],
{2}4-1[8:3],2-7[8:3],
{2}8-3[8:3],2-5[8:3],
{2}4-7[8:3],{8}6-1[8:3],,8,8,
{2}8V62[2:1],2V84[2:1],
{2}4V26[2:1],{8}6V48[2:1],,,8,
{8}8qq1[2:1],,,4,4qq5[2:1],4,,,
{8}5<5[2:1],,,,5,,8w4[8:1],8,
{1}8b>8[2:3]*<8[2:3],,
{2}2h[4:1]/6h[4:1],3h[4:1]/7h[4:1],
{4}4h[8:1]/8h[8:1],5h[8:1]/1h[8:1],2-6[8:1]/6h[8:1],2b,
{16}18,,,18,,8,1,,8-4[8:1],,1-3[8:1],,8,,1,,
{16}6,,,18,,1,8,,1-5[8:1],,8-6[8:1],,1,,8,,
{16}2,,,45,,5,4,,5-1[8:1],,4-2[8:1],,5,,4,,
{16}7,,,55,,4,5,,4-8[8:1],,5-7[8:1],,4,,5,,
{16}1,,,1,8-6[8:1],8,1-5[8:1],,8-4[8:1],,1-3[8:1],,8,,1,,
{16}8,,,8,1-3[8:1],1,8-4[8:1],,1-5[8:1],,8-6[8:1],,1,,8,,
{16}1,,,2,1-7[8:1],1,2-6[8:1],,1-5[8:1],,2-4[8:1],,1,,2,,
{16}7,,,7,8-2[8:1],8,7-3[8:1],,8-4[8:1],,7-5[8:1],,8,,7,,
{16}1h[1:1],8,,7,7,,6,,5,,,6,,,7,,
{16}8h[1:1],1,1,,2,,3,3,,,4,,,,3,,
{16}2h[1:1],8,,7,7,,6,,5,,,4,,,3,,
{16}1h[4:3],2,2,,3,,4,4,,,5,,5bw1[8:1],,46,46,
{16},,,4,5<1[4:1],,5,,1pp4[8:3],,,2,,,4V68[4:1],,
{16},8,8-2[8:1],,2>4[8:1],,4q1[4:1],4,,,1-5[8:1],,,,4q7[8:3],,
{16},8,,8,7V15[4:1],,6,,5qq1[8:3],,,7,,,1V38[4:1],,
{16},8,8v5[8:1],,5<7[8:1],,7q4[4:1],7,,,4-1[8:1],,,,8,,
{16}8-4[8:1],,1,8,8V62[4:1],1,1V73[4:1],,8,,1-5[8:1],,,,,,
{16}2-6[8:1],,1,2,2V48[4:1],1,1V37[4:1],,2,,1-5[8:1],,,,,,
{16}7-5[8:1],,1,7,7>2[16:3],1,1>4[16:3],,3<6[16:3],,5,,7,,1,,
{16}2,1,3,8,4,7,5,6,8,7,1,6,2,5,3,4h[16:13],
{8}2h[8:7],,,,,,,8h[1:1],
{1}6h[8:7],
{8}3h[4:3]/7h[8:7],,,,,,,5h[8:8],
{8}1h[8:3],,,,2,,3<6[8:1],4,
{8}1-5[8:1]/3,8,7<4[8:1]/1,6,1-5[8:1]/7,2,1/3-7[8:1],4,
{8}1>4[8:1]/3,2,7-3[8:1]/1,6,5>2[8:1]/7,4,5/7-3[8:1],8,
{8}1<6[8:1]/7,2,3<6[8:1]/1,2,1-5[8:1]/3,8,1/7,6,
{16}4,4,3,3,2,2,1,1,{32}8,7,6,5,4,3,2,1,{4}8b/4b,
{8}1>3[8:1],8,7>1[8:1],6,5<7[8:1],4,3<5[8:1],2,
{8}1<7[8:1],2,3>1[8:1],4,5>3[8:1],6,7<5[8:1],8,
{8}1-4[8:1],8,7-2[8:1],6,5-8[8:1],4,3-6[8:1],2,
{8}1-6[8:1],2,3-8[8:1],4,5-2[8:1],6,7b-4[8:1],8,
{8}1-4[8:1]/7,8,7-2[8:1]/1,6,5-8[8:1]/7,4,3-6[8:1]/5,2,
{8}1-6[8:1]/3,2,3-8[8:1]/1,4,5-2[8:1]/3,6,7-4[8:1]/5,8,
{8}1-6[8:1]/7,2,1-4[8:1]/3,2,1-5[8:1]/7,8,13,2,
{16}1,1,3,3,5,5,7,7,{32}5,4,3,2,1,8,7,6,{4}1b/5b,
{16}1/6h[16:3],,,1,,1,1/6h[16:6],,8,,7,,{32}7,8,1,2,{8}3,
{16}8/3,,3,8,,83,8/3h[16:2],,1,,2/3h[16:2],,{32}2,1,8,7,{8}6,
{16}8/6h[16:3],,,8,6h[16:3],8,8,,16,6h[16:3],2,,{32}2,37,48,51,{8}62,
{16}8/3h[16:3],,,8,3,8,38,3,13,82,17,86,85,16,27,38,
{4}1<6[8:1]/4>1[8:1],1-5[8:1]/4,1V75[8:1]/5V31[8:1],,
{16}8,,1-4[8:1]/8,,,2,1-6[8:1],,,,1,,4z8[16:3],5-1[8:1],,,
{16}45,,,,37,,37,,2<7[16:3]/6>3[16:3],1<7[8:1]/5>3[8:1],,,,,,,
{16}84,,15,,62,,3,4,5,6,7,8,{32}15,4,3,2,1,8,7,6,5bV71[4:7]/2b-6[4:7],
