&title=雪女
&artist=かねこちはる
&first=2.43
&des_5=Rɑ́ːgnərøkk
&lv_5=14+
&des=Rɑ́ːgnərøkk
&wholebpm=200
&demo_seek=76.7
&demo_len=21.5
&inote_5=(200){8}
6h[4:1]/5h[8:1],,,5h[4:1]/4h[8:1],,,3h[4:1]/4h[8:1],,
,5h[8:1]/4h[4:1],,,5h[4:1]/6,,8,,
3h[4:1]/4h[8:1],,,4h[4:1]/5h[8:1],,,6h[4:1]/5h[8:1],,
,4h[8:1]/5h[4:1],,,4h[4:1]/3,,1,,
7h[4:1],5h[8:1],,6h[4:1],4h[8:1],,5h[4:1],3h[8:1],
,4h[4:1],2h[4:1],,5-1[8:1],,1,,
2h[4:1],4h[8:1],,3h[4:1],5h[8:1],,4h[4:1],6h[8:1],
,5h[4:1],7h[4:1],,4-8[8:1],,8,,
7-5[8:1],7h[8:1],,4-2[8:1],4h[8:1],,6-8[8:1],6h[8:1],
,3-5[8:1],3h[8:1],,8-4[8:1],,84,,
3-1[8:1],3h[8:1],,7-1[8:1],7h[8:1],,2-4[8:1],2h[8:1],
,7-5[8:1],7h[8:1],,4-8[8:1],,48,,
7-5[8:1],5h[8:1],,3-1[8:1],1h[8:1],,6-4[8:1],4h[8:1],
,2-8[8:1],8h[8:1],,5-1[8:1],,51,,
2-4[8:1],4h[8:1],,6-8[8:1],8h[8:1],,3-1[8:1],1h[8:1],
,7-5[8:1],5h[8:1],,8-4[8:1],,84,,
7h[8:1]/5h[4:1],,6,3h[8:1]/5h[4:1],,4,8h[8:1]/5h[4:1],,
7,2h[8:1]/5h[4:1],,3,7/5-1[8:1],,65,,
8h[4:1]/2h[8:1],,3,1h[4:1]/7h[8:1],,6,8h[4:1]/3h[8:1],,
4,1h[4:1]/6h[8:1],,5,2-6[8:1]/8,,2/5h[4:1],,
{16}7,8,1,2,3,4,5/8b,7,6,5,4,3,2,1,8,7,
{12}6,4,5,3,5,4,7,5,6,2,4,3,
{4}7^5[8:1]*^1[8:1],7-3[8:1],7/4^1[8:1],4/5h[4:1],
{16}8,7,6,5,8,7,6,5,8,7,6,5,48,37,26,15,
{8}4b/8h[4:1],6h[8:1],,1h[4:1]/5,3h[8:1],,7h[4:1]/3,5h[8:1],
,2h[4:1]/6,4h[8:1],,8v5[8:1]/4^1[8:1],,48,,
6/8h[4:1],5h[8:1],,2/4h[4:1],1h[8:1],,7/8h[4:1],5h[8:1],
,3/4h[4:1],1h[8:1],,87,{16},65,,,24,,
{12}1b/8b,,,7,5,6,2,4,3,7,4,5,
{16}3,,3,,8h[16:1],1,,2v5[16:3]/7V15[16:3],{4},,
4^6[8:1]*^2[8:1],4-8[8:1],7^4[8:1]/4,7/1h[4:1],
{16}3,2,1,8,76,5,4,3,21,8,7,6,54,3,2,1,
{1}8h[2:1]/7b>7[8:18],4h[2:1],2h[2:1],
{8},8h[24:13]/1h[4:1],,,{12}1,2,3,48,7,6,
{8}1p8[1:3]/5,,,,,,7,6,
,,3,4,,,5,4,
,,2,3,,,5,6,
,,4-8[8:1],,,,{24}1b/7b,2h/6h,3h/5h,{8}4h,
6h[8:3],5,5,4h[8:3],5,5,7h[8:3],5,
5,4h[8:3],5,5,8^5[8:1],,81,,
3h[8:3],4,4,5h[8:3],4,4,2h[8:3],4,
4,5h[8:3],4,4,1^4[8:1],,18,,
6,6,5,5,8,8,1,1,
{16}7,8,7,8,6,1,6,1,5,4,5,4,6,3,6,3,
{4}2V48[8:5]/7V51[4:5],,,,
,,5-1[8:1],5,
{16}2h[32:1],1h[32:1],2h[32:1],1h[32:1],2h[32:1],3h[32:1],4h[32:1],5h[32:1],7h[32:1],8h[32:1],7h[32:1],8h[32:1],7h[32:1],6h[32:1],5h[32:1],4h[32:1],
{12}2,5,4,6,4,5,2,6,4,7,3,5,
{16}1h[32:1],7h[32:1],1h[32:1],7h[32:1],1h[32:1],2h[32:1],3h[32:1],4h[32:1],8h[32:1],2h[32:1],8h[32:1],2h[32:1],8h[32:1],7h[32:1],6h[32:1],5h[32:1],
{12}2,4,3,7,5,6,{16}45,,,24,,,71,,
6h[32:1],5h[32:1],6h[32:1],5h[32:1],6h[32:1],7h[32:1],8h[32:1],1h[32:1],3h[32:1],4h[32:1],3h[32:1],4h[32:1],3h[32:1],2h[32:1],1h[32:1],8h[32:1],
{12}6,1,7,2,8,3,6,1,7,3,8,2,
{16}5h[32:1],3h[32:1],5h[32:1],3h[32:1],5h[32:1],6h[32:1],7h[32:1],8h[32:1],4h[32:1],6h[32:1],4h[32:1],6h[32:1],4h[32:1],3h[32:1],2h[32:1],1h[32:1],
87,,,,
4h[32:1],5h[32:1],4h[32:1],5h[32:1],4h[32:1],3h[32:1],2h[32:1],1h[32:1],6h[32:1],5h[32:1],6h[32:1],5h[32:1],
7,,,,5h[32:1],4h[32:1],5h[32:1],4h[32:1],5h[32:1],6h[32:1],7h[32:1],8h[32:1],3h[32:1],4h[32:1],3h[32:1],4h[32:1],
2,,,,
3h[32:1],5h[32:1],3h[32:1],5h[32:1],3h[32:1],2h[32:1],1h[32:1],8h[32:1],6h[32:1],4h[32:1],6h[32:1],4h[32:1],
7,,,,6h[32:1],4h[32:1],6h[32:1],4h[32:1],6h[32:1],7h[32:1],8h[32:1],1h[32:1],3h[32:1],5h[32:1],3h[32:1],5h[32:1],
2,,,,3h[32:1],4h[32:1],3h[32:1],4h[32:1],2h[32:1],1h[32:1],8h[32:1],7h[32:1],5h[32:1],4h[32:1],5h[32:1],4h[32:1],
6,,,,6h[32:1],5h[32:1],6h[32:1],5h[32:1],7h[32:1],8h[32:1],1h[32:1],2h[32:1],4h[32:1],5h[32:1],4h[32:1],5h[32:1],
3h[32:1],6h[32:1],3h[32:1],6h[32:1],2h[32:1],5h[32:1],3h[32:1],7h[32:1],4h[32:1],6h[32:1],1h[32:1],5h[32:1],3h[32:1],8h[32:1],4h[32:1],6h[32:1],
{1}1b-5[4:5],,
{8}6b-4[8:1],3h[8:1],6,2-6[8:1],5h[8:1],2,7-4[8:1],3h[8:1],
7,1-5[8:1],6h[8:1],1,8-6[8:1]*-4[8:1],,8,,
3-6[8:1],5h[8:1],3,7-3[8:1],4h[8:1],7,1-6[8:1],5h[8:1],
1,4-8[8:1],1h[8:1],4,2-6[8:1]*-4[8:1],,2,,
{16}7,8,1,2,3,4,5,6/2b,1,8,7,6,5,4,3,2,
{12}1,5,3,8,4,6,1,4,3,8,5,6,
{4}1-3[8:1]*-4[8:1],1-6[8:1],5^8[8:1]/1,5/4h[4:1],
{16}1,2,3,4,1,2,3,4,1,2,3,4,51,62,73,84,
{8}5/1b-6[8:1],3h[8:1],1,2-5[8:1],5h[8:1],2,1p5[8:1],4h[8:1],
1,2q6[8:1],6h[8:1],2,1-3[8:1]*-7[8:1],,1,,
6-4[8:1],4h[8:1],6,8-2[8:1],5h[8:1],8,7-3[8:1],3h[8:1],
7,8>4[32:5],,8,6,{16},75,,,24,,
{12}1b/8b,,,3,8,2,6,1,7,4,8,2,
{16}7,,7,,4h[16:1],5,,3V51[16:3]/6v1[16:3],{4},,
8-2[8:1]*-3[8:1],8-5[8:1],8/4-1[8:1]*pp6[8:1],4,
{1}8b,
{16}1b/8b,,7,,64,,3-8[8:1],5,,5,3,,6,,7,,
18,,2,,36,,4,5,,63,,4,5,,36,,
18,,2,,35,,6-1[8:1],4,,4,6,,3,,2,,
18,,7,,36,,5,4,
,36,,71,,82,,3,
5b,,64,,73,,2^5[8:1],1,,1,2,,8,,7-3[8:1],,
4,,7,,2,,1,8,,27,,1,8,,27,,
4,,35,,26,,7^4[8:1],8,,8,7,,1,,2-6[8:1],,
5,,2,,7,,18,27,6-4[8:1]/3-5[8:1],,,,36,,,,
{24}1b/8b,2h/7h,3h/6h,{8}4h/5h,36,,78,{16},13,{8},45,
,{24}1b/5,2,3,4/1b,,,,,,8b/4,7,6,5/8b,,,,,,8b/5,1,2,
3/1b,,,,,,1b/4,8,7,6/8b,,,,,,8b/4b,15,26,3b/7b,48,15,
{1}2bqq6[1:4]/6bqq2[2:5],,,{8},{16}3h,4h,{1}5h,
E
