&title=非常EXIT
&artist=Magens
&first=0
&des=しのさく.
&lv_5=13+
&inote_5=(148){4},,7/1h[4:1],6,
{8}7/4,3,{4}6/1h[8:1],{8}4/7h[8:1],3,5/2h[8:1],6,
8h[2:1],2,2,3,4h[2:1],7,,6,
,5,{16}6/3,7/2,,,{4}2b-5[8:1],2/8qq3b[4:1],
,1b,{32}8bx/2bx,3/7,{16}6/4,,,3,5,3,5,
2,4,3,5,4,6,3,7h[16:3],{4}1h[8:1],{16}6,4,6,4,
{8}7x-4[8:1],2-5[8:1],7-1[8:1],2,{4}7,{16}4,6,4,6,
{8}3-8[8:1],2,3/5-7[8:1],6,{4}5,{16}4,6,3,7,
{8}2x-5[8:1],8-4[8:1],2,8,{4}1b,{16}6,4,6,4,
7,5,6,4,5,3,6,2h[16:3],{4}8h[8:1],{16}6,4,5,3,
{8}7x-4[8:1],2-5[8:1],7-1[8:1],2,{4}7,{16}2,6,3,5,
{8}3h[4:1],7,5h[4:1],1,{4}3,{16}4,6,3,7,
{8}2x-5[8:1],8-4[8:1],2,8,1b,6h[4:1],2,2h[8:1],
{16}E4,E5,E6,E7,{4}E8,{16}1,7,1,7,2,8,2,8,
{8}3h[4:1],7,5h[4:1],1,2-4[8:1],7,2,8,
7-5[8:1],3,{4}7/4V28[4:1],4/C,{16}6h[16:3],,,2,
{8}2,{16}8,2,7,3,{8}6,4b,3,{16}1,1h[16:3],,,6,
6h[16:3],,,{4}4h[8:1],{8}2/7-5[8:1],4/5-1[8:1],,,,4,
4,4,7/3,{16}2,1,{8}2,{16}3,4,
{8}2h[8:1],{16}6,5,{8}7h[8:1],1,2b,3b,4b,5b,
6-3[8:1],7/4,{4}6/3,{8}1bx,{16}3x,4x,{8}2x,8x,
7xh[4:1],5x,B4,2xh[4:1],{16},,5x,6x,7x/8x,1x,2x,3x,
{8}4x,{16}7x,7x,4x,6,4,6,{8}3,{16}3,5,{8}3,{16}3,6,
{8}3,{16}3,7,{8}3,{16}8,1,7,2,6,3,5,4,5,4,
{4}6b/3b,1-5[8:1],1b/7,2-4[8:1],
2/5-7[8:1],5/8,{8}2-4[8:1],4-8[8:1],{4}2,
{8}5x,5x,6x,6x,{32}7xh[4:1]/B1,B2,{16}E3,{32},,,,,,,,,,,,3h[4:1]/E7,
B7,{16}B8,,,,,,,{2}8h[2:1]/2bh[2:1],
{32},,,,,,,,,,,,,,,,1b-6-4[8:1]/8b-3-5[8:1],2/7,{16}6/3,,,{4}1/8,
{8}2-4[8:1],4-6[8:1],{4}2x,{8}8<6[8:1],7,8/2pp4[8:1],3,
2,6,7,8,{32}7/1b-3[8:1],6,{16}5,{32},,,,8b/1,7,{16}6,{32},,,,7x/1b,
6,5,4,3,2,1,8,{4}7x<4[8:1],{8}7/1bpp3[8:1],2b,{4}1b,
{32}5,6,7,8,1,2,3,4,{4}5b,7/1h[4:1],6h[8:1],
{8}4/7h[8:1],3,{4}6/1h[8:1],{8}7-5[8:1],6,1pp3[8:1],2,
1/7,5,6/4,7,{32}8/3,7,6,5,4,3,2,1,8/3,4,5,6,7,8,1,2,
3/6,7,8,1,2,3,4,5,{4}3/6x-8-4[4:1],2b,B2f/E3,
{32}1b,8/2,3/7,6z2b[32:5]/4s8b[32:5],{4},,{16},,3,5,1,7,
1,8,2,8,2,7,3,6,{4}4b,{16}3,5,2,6,
1,8,7,6,8/5,7,6,5,{4}4b/8,{16}6,4,8,2,
8,1,7,1,7,2,6,3,{4}5b,{16}6,4,7,3,
8,1,2,3,1/4,2,3,4,{4}5b/1,{16}3,5,1,7,
1,8,2,8,2,7,3,6,{4}4b,{16}3,5,2,6,
1,8,7,6,8/5,7,6,5,{4}4b/8,{16}4,6,2,8,
{8}1>3[8:1],6,1pp3<7b[2:1]*pp3[4:1],5,{2}1,
{1}1b,
E
