&title=メイドノココロハ アヤツリドール
&artist=森羅万象/あよ
&first=0
&des_6=尘落南丘
&lv_6=13
&des=尘落南丘
&inote_6=(128){1},
{2}8h[2:3]/1h,2h,3h,4h,
{2}1h[2:3]/5h,6h,7h,8h,
{4}5-1[8:1]/7,6,7-3[8:1]/1,8,
{8}1-5[8:1]/3,,2,,5h[8:1],3,4h[8:1],6,
{4}4-8[8:1]/2,3,2-6[8:1]/8,1,
{8}8-4[8:1]/6,,7,,4h[8:1],6,5h[8:1],3,
{8}2pp1[4:1],,2/6,,7qq8[4:1],,7/3,3,
{8}2^7[8:1]*v4[8:1],,,,7-4[8:1],1-5[8:1],7,1,
{8}8v5-7[4:1],,3/8,,1v4-2[4:1],,6/1,7,
{8}8w4[8:1],,,,23,18,76,,
{8}56,1,34,8,2-6[8:1]/1-5[8:1],A3/A8/E4/E8,2x/1x,,
{8}6h[4:1],8,5h[8:1],7,7-3[8:1]/8-4[8:1],A6/A1/E6/E2,7x/8x,,
{8}3-5v3[4:1],,6,6,7-1v7[4:1],,2,2,
{8}3,4,5,36,2-5-7[16:3]/7-4-2[16:3],18,72,,
{8}18,18,8/1q5[8:1],1,8p4[8:1],8,1,1,
{8}24,1,24,6,2-6[8:1]/4-7[8:1],1,24,,
{8}8-5V37[2:1],8,4,4,2x,2x,4bx,,1-4V62[2:1],1,5,5,7x,7x,5bx,,
{8}26,8,37,1,8-5[8:1],8,1-4[8:1],1,7-3[8:1],7,2-6-3-5b[8:3],2,7-1[8:1],7,7b,,
{8}1^6[8:1]/5^2[8:1],15,,,8^3[8:1]/4^7[8:1],,48,,
{4}E1/B4h[4:1]/B5h[2:1]/E5hf[4:3],B8,B1,E1,
{4}4/8-2^8[4:1],5/8-6^8-2^8[2:1],3,5,
{16}3,,8,2,1,,83,,6,,1,7,8,,16,,
{4}6/1>6[4:1],6>1[4:1]/1,1>6[4:1],6>1>6[2:1],
{16}8,,8x,,7,,7x,,8,,7,8,7,,16,,
{4}6/2-5-2[4:1],8/2-6-2-5-2[2:1],7,8,
{16}7,,1,6,2,,78,,2,,8,3,7,,21,,
{4}3/8V63[4:1],8/3V58[4:1],8V63[4:1],3V58V63[2:1],
{16}1,,1x,,2,,2x,,1,,2,1,2,,38,,
{16}6,,6,,5-2[8:1],6,6,,5-8[8:1]*-7[8:1],,,,5,,,,
{32}6hx[8:1]/A1,D2,A2,D3,,,,,3hx[8:1]/A7,D7,A6,D6,,,,,
{8}2-5[8:1],8-4[8:1],2,8,
{8}1^4[8:1],5^8[8:1],1,5,4^1[8:1],8^5[8:1],4,8,
{8}1,2,4qq4[8:3]*p7^4[8:3]/8,7,,,,,
{8}16,4,38,5,1v4[8:1]/7v4[8:1],A6/A2/E6/E3,17,,
{8}3h[4:1],7,4h[8:1],1,8v5[8:1]/2v5[8:1],A3/A7/E4/E7,82,,
{8}6V48-6[4:1],,3,3,2V84-2[4:1],,7,7,
{8}6,5,4,63,7-4-2[16:3]/2-5-7[16:3],81,2b/7b,,
{8}81,81,1/8p3[8:1],8,1q6[8:1],1,8,8,
{8}75,8,75,3,7-3[8:1]/5-2[8:1],8,75,,
{8}1s5V72[2:1],1,5,5,6x,6x,7bx,,8z4V27[2:1],8,4,4,3x,3x,2bx,,
{8}73,1,62,8,1-4[8:1],2,8-5[8:1],7,2-6[8:1],1,7-3-6-4b[8:3],8,2-8[8:1],2,2b,,
{16}1x,5x,1x,5x,2,6,2,6,
{32}3,4,5,6,7,8,1,2,3,4,5,6,7,8,1,2,
{1}7xbq5[2:1]/3xbq1[2:1],
{2}1h[4:15]/8h[4:1],2h[4:1],3h[4:1],4h[4:1],
{2}5h[4:1],6h[4:1],7h[4:1],8h[4:1],
{16}28,,1,8,2^4[8:1],,,,8^6[8:1],,,,2,,,,
{16}71,,8,1,7^5[8:1],,,,1^3[8:1],,,,7,,,,
{8}18,18,23,23,76,76,{16}1,8,1,8,
{1}1b-5^4-8[2:1],
{32}17,6x,5x,4x,,,,,2/8qq5[8:3],3x,4x,5x,,,,,
{4}8/4^1[8:1],4,
{32}62,3x,4x,5x,,,,,7/3qq8[8:3],6x,5x,4x,,,,,
{4}3/4^7[8:1],4,
{8}1V37[4:1],8,7V51[4:1],8,1V37[4:1],8,7V51[4:1],8,
{16}1,,8,,7,,1,8,1,8,1,,3b/6b,,1/8,,
{32}82,3x,4x,5x,,,,,7/1pp4[8:3],6x,5x,4x,,,,,
{4}1/5^8[8:1],5,
{32}37,6x,5x,4x,,,,,2/6pp1[8:3],3x,4x,5x,,,,,
{4}6/5^2[8:1],5,
{8}8^6-2[4:1],1,2^4-8[4:1],1,8^6-2[4:1],1,2^4-8[4:1],1,
{16}8,,1,,2,,8,1,8,1,8,,6b/3b,,8/1,,
{32}71,2x,3x,4x,,,,,2qq6[8:3]/8,7x,6x,5x,,,,,
{4}2/7-3[8:1],7,
{32}83,7x,6x,5x,,,,,1/6pp4[8:3],2x,3x,4x,,,,,
{4}6/2-5[8:1],2,
{8}8<2[4:1],1,2>8[4:1],1,8<2[4:1],1,2>8[4:1],1,
{16}8,,1,,2,,1,7,2,6,1,,7b/8b,,26,,
{32}28,7x,6x,5x,,,,,7pp3[8:3]/1,2x,3x,4x,,,,,
{4}7/2-6[8:1],2,
{32}16,2x,3x,4x,,,,,8/3qq5[8:3],7x,6x,5x,,,,,
{4}3/7-4[8:1],7,
{8}1V35-7[4:1],8,7V53-1[4:1],8,1V35-7[4:1],8,7V53-1[4:1],8,
{16}1,,8,,7,,8,2,7,3,8,,2b/1b,,73,,
{4}8^5[8:1]/5^2[8:1],8/5-8-3[4:1],35,4,
{4}1^4[8:1]/4^7[8:1],1/4-1-6[4:1],64,5,
{4}8-6[8:1],5-1[8:1],6-4[8:1],2-8[8:1],
{4}7v5[8:1],4v2[8:1],8w4b[8:1],8,
{4}1^3[8:1]/4^6[8:1],1/4v6[4:1],64,7,
{4}8^6[8:1]/5^3[8:1],8/5v3[4:1],35,2,
{4}1-3[8:1],4-8[8:1],3-5[8:1],8v3>3[4:3],
{4}1h[4:3],
E
