&title=Kakawari
&artist=TrySail
&des=Syuteru
&first=0.838
&des_5=Syuteru
&lv_5=12+
&des_6=Syuteru
&lv_6=13+
&inote_5=(193)
{1},,,
{8}1/8,1/8,,,
{8},1/8,,1h[8:5]/8h[8:5],
{1},
{8}2/7,2/7,,,
{8},2/7,,2h[8:3]/7h[8:3],
{2},
{8}7x,8x,1x,2x,3h[8:5],,
{4},
{8},2,1,8h[8:5],
{2},7h[2:1],8h[8:5],
{8},6,7,6h[8:5],
{1},
{8}5h[8:5],
{2},
{8}4,5,4h[8:4],,,,3h[8:3],,,2h[8:2],,
{2}1h[8:7],8h[8:3],,
{2}B1/B2/B3/B4/B5/B6/B7/B8/Chf[8:3],
{8},18,8b/1-5[8:1],,1b/8-4[8:1],,8b/2-5[8:1],,2b/7-4[8:1],,7b,,
1,2,,3h[8:3],,,
{4},4h[4:1]/5h[4:1],
{8},B3/B4/B5/B6/E4/E6,B3/B4/B5/B6/E4/E6,,
{4},3h[4:1]/6h[4:1],
{8},B3/B4/B5/B6/E4/E6,B3/B4/B5/B6/E4/E6,,
{4},
{8}1,2,3,4,4h[8:2],,5h[8:2],,4h[8:2],,5x,,
{4},C/B4/B5,3h[4:2]/6h[4:1],
{8},6,6,
{8},,,2h[4:2]/7h[4:1],
{8},,6x,7x,,,1,1h[8:4],,,2,2h[8:4],,,3,3h[8:3],,,4,
{4},B1/B2/B7/B8/E1/E2/E8,
8h[4:2],B2/B3/E3,1h[4:2],B6/B7/E7,7h[4:2],B4/B5/E5,2h[4:2],B4/B5/E5,
{8}7,8,1,2,3h[4:1],,4h[4:1],,5h[4:1],,6x,,,,
{4}1,1,
{8}2,3h[8:13],
{4},5,5,
{8}6,7h[8:5],
{1},{4}1h[4:1],2h[4:1],3h[4:1],4h[4:1],5h[1:2],,
{2}B7/B8/E8,B1/B2/E2,B3/B4/E4,B5/B6/E6,
{8},3x/7x,2x/6x,3x/7x,
{2},
{8}4b/5b,4b/5b,
{4},{8}
3-5[8:1],3,4,3,6-4[8:1],6,5,6,
2-4[8:1],2,4,2,7-5[8:1],7,5,7,
1-4[8:2],1,4,1,8-5[8:2],8,5,8,
6,5,4,3,
{6}1/2,1/8,
{8}7/8,7/8,
{6},{8}6,7h[4:2]/8h[4:2],
{2},{8}1x/6x,1x/6x,,,Chf[8:4]/1b,,2b,,3b,
{8},4,4h[4:1],8,8h[4:1],1,1h[4:1],5,5h[4:1],2,2h[8:3],,,6h[8:2],,2h[4:1],,8,1,,
{32}C/B1/B2/B3/B4/E2/E5,,,,,,,,C/B5/B6/B7/B8/E5/E8,,,,
{4},,8h[4:2],B3/E3/E4,B4/B5/E5,,1h[4:2],B6/E6/E7,B4/B5/E5,,
7h[4:1],8h[4:1],1h[4:1],
{8}2x,2x,,3x,,4-2-8[8:3],,4b,,6,5,,5<1[8:1],,5b,,,
1,1h[4:2],,4x,,6x,
,,2h[8:3],,,3h[4:1],,2h[4:1],,4,4,,1-5[8:1],,1b,
{2},
{8}4h[4:1],,3h[4:1],,2-6[8:1],,,1-5[8:1],,,8-4[8:1],,
{8},7,6,,
{4}1,2,3h[4:2],,,,4h[4:2],,5h[4:2],,4h[4:3],3b,2b,1b,,,
{8}8-4[96#16:1],1,2,,8x,,4w8[97#8:3],3,,,4x,,
{1},{4},6h[4:3]/1,2,3,4,
{8},1pp5[8:3],,,B6/B7/E7,,B6/B7/E7,
,,,,,,,5pp5[8:2]/5qq5[8:2],,,,A4/A5/A6,,,,
{1}
Chf[1:2]/B1/B2/B3/B4/B5/B6/B7/B8,,
B1/B2/B3/B4/B5/B6/B7/B8/E1/E2/E3/E5/E7/E8,
E
&inote_6=(193)
{1},,,
{8}1h[8:1]/8h[8:1],,,,
{8},2q5[8:5]/7h[8:1],,2/7h[8:5],
{1},
{8}3h[8:1]/6h[8:1],,,,
{8},4h[8:1]/5h[8:1],,3p7[8:2]/6q2[8:2],
{2},
{8}6b,5b,4b,3b>7[8:3],3h[8:4],,
{4},
{8},1,8,6h[8:3]/7h[8:3],
{2},7qq3[96#16:4],7h[8:12],
{8},4,2,8h[8:5],
{1},
{8}1h[8:4]/6h[8:4],
{2},
{8}2qq3[8:4]/5pp4[8:4],3/4,B2/B3/B4/B5,,,,,,,C/E2/E4/E6/E8,,
{2}1pp8[96#4:1]b/5pp4[96#4:1]b,1/5,,
{2}B1/B2/B3/B4/B5/B6/B7/B8/Chf[8:3],
{8},18,8b/1v6[8:1],,1b/8v3[8:1],,8b/1,,1-6[8:1]/2-5[8:1],,1b/2b,,
4/7,3/8,,1h[8:3]/2h[8:2],,,
{4},3h[8:1]/4h[4:3],
{8}2h,1h,8v3[772#4:3],,
{4},4h[4:3]/5h[8:1],
{8}7h,6h,5q3[772#4:3],,
{4},
{8}4/8,1/5,2/6,3/7,2-7-2[396#1:1]/6-3-6[396#1:1],,E4/E8,,E2/E6,,E1/E5,,
{4},C/B1/B4/B5/B8,1h[8:1]/7^8-5^4[8:3],
{8}E2,E3,E4,
{8},,,1h[8:1]/3^4p8-5[8:3],
{8},8,1,2,,,6,6-2[4:1],,,5,5-1[4:1],,,4,4w8[145#16:3],,,4,
{4},B1/B7/B8/E1/E2/E7/E8,
1h[8:1]/7h[8:1],
{8}2/6,3/5,4-7[8:1]/4-1[8:1],,4,,2h[8:1]/8h[8:1],,3/7,4/6,5-8[8:1]/5-2[8:1],,5,,
{8}1/8h[8:3],2,3,4,5>1>5[8:3]/6p8q6[8:3],,,,,,7/8,,,,
{4}1/2,2-5[16:1]/8,
{8}2/7h[8:2],4h[8:13],
{4},5,6,
{8}7-2-5-3[396#4:5],7,
{1},
{4}1h[4:1],8h[4:1],7h[4:1],6h[4:1],5h[1:2],,
{16}6,B6,C,,,,,,8,B8,C,,,,,,2,B2,C,,,,,,4,B4,C,,,,,,
{8},3/7,2/6,1v4v1[76#32:3]/5v8v5[76#32:3],
{2},
{8}1b/5b,,
{4},
{8}3h[8:1]/6h[8:1]
,,2-8[396#8:6]/7-1[396#8:6],2/7,,,,,5-2[16:1]/6h[4:1],,5,,2-7[16:1]/3h[4:1],,2,,7-4[16:1]/8h[4:1],,7,,,3/6,2-4-1[4:1]/7-5-8[4:1],,2/7,,,,
{6}1b/2b,3b/4b,
{8}5b/6b,7b/8b,
{6},{8}1/8,2h[4:2]/7h[4:2],
{2},{8}B6/B7/E6/E8,B2/B3/E2/E4,,,Chf[4:1],,
{32}1b,2,3,4,5,6,7,8,,,,,
{8},,1>1[16:7],C,,5h[4:1],,,,,6<8-5-2>4[8:3],,,1,,8,,1/5,8>3p7[160#16:5]/4<7p3[160#16:5],,
{32},4b/8b,,,,,,,,B1/B5,,,
{4},,
{32}8-3[8:1]*-2[8:1],7,6,,,,,,8-5[8:1]*-6[8:1],,,,,,,,8,,,,,,,,,,,,,,,,4-1[8:1]*-2[8:1],5,6,,,,,,4-7[8:1]*-6[8:1],,,,,,,,4,,,,
{8},,,3qq4[4:1]/4pp4[4:1],,E4/B3/B4,,
,,5,5-2[8:1],,4-8[8:1],,6p2[8:1],,,,1/2,
1b-5[8:1]/8b-6[8:1],,1b-3[8:1]/8b-4[8:1],,1b/8b,,
,3/4,3>8q4[396#8:7]/4p7qq5[396#8:7],,,,,,,6<3>6[128#4:1],,,3p6[8:1]b,,,
,
{8}5pp8[8:4],4qq1[8:3]b,,,,,,,,,2/8,,3/7,,6b-4[8:1],,,3b-7[8:1],,
,8b-2[120#16:1],,,
8,7p4>4[4:5],,4h[8:1],,3h[8:1],,2h[4:3],,,,,,,,Ch[4:2],,
{8},,B1/B2/B3/B4/B5/B6/B7/B8,,,,4-6[8:1]*-7[8:1],,4-1[8:1]*-2[8:1],,4w8[8:1],,
4b,,,,{4}B1/B2/B6/B7/B8/E1/E2/E7/E8,
{16}1/8,,7/8,,6-3[8:1]/7-2[8:1],,,,
{8}6/7,,3/5,4w8[128#32:3],
,,4pp8[4:4]*qq8[4:4],,,,,,,,,,,,
{32}2/E8,E3,B3,B4,E5,,,,7/E2,E7,B6,B5,E5,,,,1/E7/B6/B7,E2,B2,B3,E4,,,,8/E3/B2/B3,E8,B7,B6,E6,,,,,
,,,A1h[8:9]/A8h[8:9],,,,
{4},6-3<6[4:2],6,,,,1v6[96#16:1]/8v3[96#16:1],,1/8,,
{512}4b-1-6-3-8-5-2-7[4:11]b,5b-2-7-4-1-6-3-8[4:11],{256},{128},{64},{32},{16},{8},{4},{2},{1},
E
