&title=アルストロメリア
&artist=TAG
&first=-0.07
&des=hhh02081
&lv_5=14
&inote_5=(144.0)
{4},
{16}1b/7h[16:3],,8,8,7,1,6,4,5,3,4,2,8,1b/7,,
{16}8b/2h[16:3],,1,1,2,8,3,5,4,6,5,7,1,1,8b/2,,
{16}1b/7h[8:1],,2,8,3,7,4,6,5,7b,7,1,6,2,5,3,4b/2h[16:3],,
{16}3,3,2,4,3,4/5h[24:8],,
{24}6,7,8,1,2,3,4/6,7,8,1,2,3,
{16}4b/8h[16:3],,7,7,8,6,1,5,2,4,3,5,5,6b/4,,
{16}3b/1h[16:3],,2,2,1,3,8,4,7,5,6,4,5,3,2b/4,,
{16}6b/8h[8:1],,7,1,6,2,5,3,4,2b,2,8,3,7,4,6,5b/7h[16:3],,
{16}5,5,6,4,7,3,8,2,1,3,4,2,5,1,6,
{16}3h[8:1],,6,3h[8:1],,6,3qq8[8:3],,
{16}5,,7,,5,5,,7h[16:3],,,
{16}1h[8:1],,6,1h[8:1],,6,1p3[16:3],,,1,,,8,7,
{16}6h[8:1],,3,6h[8:1],,3,6pp1[8:3],,
{16}4,,2,,4,4,,2h[16:3],,,
{16}8h[8:1],,3,8h[8:1],,3,8q6[16:3],,,8,,,1,2,
{16}3h[8:1],,,2h[8:1]/4h[8:1],,,1h[8:6]/5h[8:1],,,,4,,5,,6,,
{16}7,,8,1,,28,,3/7<4[8:1],,,,,,,2,3,2h[8:3],,,1,,,8,,3>8[8:1]/7,,,6,,,,7h[16:9],
{16},,2,,,2,,,2,,1h[4:3]/4,,5,,4,,6,,,7,,,8<3[8:3],,,,,,,,1>6[8:3],1,
{16},,,,,,6,,7,,8,,12,,38,,
{16}4h[8:1]/6h[8:1],,,3h[8:1]/1h[8:1],,,8<3[16:2]/7V53[16:2],,,,,,,,1,8,
{16}1h[8:5],,5,,,7,,,4,,
{8}5,6/8-4[8:1],7,
{16}8b<6[8:1]/2,,,1,8-3[8:1],,2,,8-5[8:1],,4,,8-4[8:1],,3,3,
{16}8<6[8:1],,,1,8-3[8:1],,2,,8-5[8:1],,4,,8-4[8:1],,4<7[8:1],4,,,
{16}2h[4:1],,,,8-4[8:1],,7-3[8:1],,8-2[8:1],,7,,8,,
{16}7h[8:1],,,4h[8:1]/6h[8:1],,,53,26,7/1<6[8:1]*>4[8:1],,,,1-5[8:1],,,,
{16}1b>3[8:1]/7,,,8,1-6[8:1],,7,,1-4[8:1],,5,,1-5[8:1],,6,6,
{16}1>3[8:1],,,8,1-6[8:1],,7,,1-4[8:1],,5,,1-5[8:1],,5<8[8:1],5,,,
{16}7h[4:1],,,,1-5[8:1],,2-6[8:1],,1-7[8:1],,2,,1,,
{16}3h[8:1],,,6h[8:1]/4h[8:1],,,37,62,5/1-4[8:1]*-6[8:1],,,,1b-5[8:1],,,,
{16}1/7h[8:1],,,4h[8:1]/6h[8:1],,,37,28,1w5[8:1],,,,1,,,2b/8b,
{1},
{16}1h[8:1],,6,2h[8:1],,7,3h[8:1],8,8,2,1,2,6,5,6,,
{16}4h[8:1],,5,3h[8:1],,4,2h[8:1],,1,3h[8:1]/8,,6,5,6,4/7,,
{16}7h[8:1],,8,6h[8:1],,1,5h[8:1],,2,3<6[8:1]/4,,,
{16}7,,8,,1bw5[16:1],,,,,,8bw4[16:1]/2b,,,,,,1/7h[8:1],,2,,
{16}8h[8:1],,3,7h[8:1],,2,6h[8:1],1,1,7,8,6,3,4,2,,
{16}5h[8:1],,4,6h[8:1],,5,7h[8:1],,8,6h[8:1]/1,,3,4,2,5/1,,
{16}2h[8:1],,1,3h[8:1],,8,4h[8:1],,7,65,,,
{16}24,,57,,18,,3,42,,6,57,,1s5[8:1]/8z4[8:1],,,,1b/8b,,,,
{16}3h[16:3],,,2h[16:3],,,1,,
{16}6h[16:3],,,7h[16:3],,,8,,
{16}2h[16:3],,,4h[16:3],,,5,,
{16}7h[16:3],,,5h[16:3],,,4,,
{16}4h[16:3],,,2h[16:3],,8,8,,
{16}5h[16:3],,,7h[16:3],,1,1,
{16}6,57,,3,24,,18,27,,3,7,5-2[16:1]*-8[16:1],1,3,,5b,,
{16}1h[8:1]/7h[8:1],,,2h[8:1]/6h[8:1],,,35,,
{16}4h[8:1]/2h[8:1],,,5h[8:1]/1h[8:1],,,68,,
{16}7h[8:1]/4h[8:1],,,6h[8:1]/3h[8:1],,,25,,
{16}3h[8:1]/8h[8:1],,,2h[8:1]/7h[8:1],,,61,,
{16}57,,3,,8,17,,
{16}24,2,,6,,1,28,,
{16}56,6,,3,,18,27,,
{16}3,4,3,6,5,6,2,2,
{16}7,17,,34,,67,58,,
{16}37,37,,65,,32,41,,
{16}7b/3b,
{1},
{16}3,,3,5,,5,4h[8:1],,6,6,,,28,,2h[8:1],,
{16}6,,6,4,,4,5h[8:1],,3,3h[8:1],,6,6,,71,,
{16}3,,3,4,,4,5,,5,6,,6,17,,1h[8:1],,8z4[8:1],,,,,,1s5[8:1],,,,,,7,,6,,
{16}45,,4,3,,3,2h[8:1],,1,1,,,28,,46,,
{16}5,,5,6,,6,7h[8:1],,8,8,,6,6,,17,,
{16}2h[8:1],,4,4h[8:1],,6,6h[8:1],,7,7,5,6,4,5,3,,
{32}1b/7b,26,35,4,,,2b/8b,,,,,,
{32}8b/2b,73,64,5,,,7b/1b,,,,,,
{16}1,8,1,8,
{16}2b,4,3,6b,5,7,1b,8,2,4,4,3,25,,18,,
{16}7b,5,6,3b,4,2,8b,1,7,5,5,6,74,,82,,
{16}3b,5,4,7b,1,8,4b,5,3,8,8,1,17,,45,,
{16}28,,6,57,,3,4,3,,2,1,2,38,,45,,
{16}6b,4,8,2b,4,8,6b,2,4,8b,6,6,2,2,13,,
{16}3b,5,1,7b,5,1,3b,7,5,1b,3,3,7,7,86,,
{16}3b,4,1,6b,5,8,3b,5,1,6b,4,8,2,2,7,7,{32}1b,2,3,4,,,7b,6,5,4,,,{16}5/3b,,6b/8h[8:3],,,,
{48}1b,2,3,4,5,6,{8}7,
{16}8b/2h[16:3],,1,1,2,8,3,5,4,6,5,7,1,8b/2,,
{16}1b/7h[16:3],,8,8,7,1,6,4,5,3,4,2,8,8,1b/7,,
{16}8b/2h[8:1],,7,1,6,2,5,3,4,2b,2,8,3,7,4,6,5b/7h[16:3],,
{16}6,6,7,5,6,5/4h[24:8],,
{24}3,2,1,8,7,6,5/3,2,1,8,7,6,
{16}5b/1h[16:3],,2,2,1,3,8,4,7,5,6,4,4,3b/5,,
{16}6b/8h[16:3],,7,7,8,6,1,5,2,4,3,5,4,6,7b/5,,
{16}3b/1h[8:1],,2,8,3,7,4,6,5,7b,7,1,6,2,5,3,4b/2h[16:3],,
{16}1,1,2,8,3,7,4,6,5,7,8,6,1,5,2,
{32}3,4,5,6,
