&title=ATLAS RUSH
&artist=kanone
&first=1.405
&des=Kurage
&wholebpm=156.000
&lv_6=14+
&des_6=
&inote_6=(156)
{8}3/4x-6-8-5[4:2],,,B2/B3,,,,4,
{8}6/5x-3-1-4[4:2],,,B7/B6,,,,5,
{8}2/4x<7[16:3],,,1>4[16:3],,,8h[4:2],,
{4}Ch[4:2],,8x-4b[8:1],,
{16}2h[16:3]/1,,,4,3,,6,,7h[16:3]/8,,,5,6,,3,,
{16}2h[16:3]/4,,,1,3,,6,,7h[16:3]/5,,,8,6,,3,4,
{8}2-6[8:1],2,5-8[8:1],5,4-1[8:1],4,7,7,
{16}2,8,3,7,2,8,4,6,{24}2,3,4,7,6,5,1,2,3,8,7,6,
{1}Cf,
{4}6z2[8:3],,1-5b[8:1],,
{8}34,2,45,6,{16}3-1[8:1],4,,4,3,,6,6,
{8}8,{16}2,2,{8}8,{16}6,5,7,4,8,,63,,,,
{16}A2,A7,B3,B6,1x-5[8:1],,7,7,1x,,8,8,4,6,3,,
{16}A7,A2,B6,B3,8x,,2,2,{16}5-8[8:1],4,5,4,5x,,,,
{8}65,7,54,3,{16}6-8[8:1],5,,5,6,,3,3,
{8}1,{16}7,7,{8}1,{16}3,4,2,5,4,5,2,6,5,6,
{4}2b-4-1-5[4:2],,A7/A8/E8,{8}6V47[4:1],,
{8},2,1-5[8:1],,8>3b[8:1]*<5[8:1],,,,
{8}2b/6b,4,43,{16}6,6h[8:1],,5-1[32:3],7,,{8}4,2,
{8}63,8,87,{16}2,2h[8:1],,1-4[32:3],3,,{8}8,6,
{8}73,5,56,{16}3,3h[8:1],,4-8[32:3],2,,{8}5,7,
{8}36,1,12,{16}7,7h[8:1],,5,6,3,4,1,8,8,
{4}2b-6[8:1],6-2[8:1],8,{16}7,3,7,3,
{4}8b-4[8:1],4-8[8:1],2,{16}3,5,3,5,
{16}2,4,3,5,4,6,5,7,{32}1,2,3,4,5,6,7,8,1,2,3,4,5,6,7,8,
{4}1p8[4:1],,6-3[8:1],1-5b[8:1]*s5[8:1],
{1}1b`Cf/B3/A3/A7/B7,
{4},,{16}3,6,4,5,{4}1-5[8:1],
{8}8b/1b,,,36,{16}5h[16:3],,,4h[16:3],,,5,,
{8}A2/E3,A7/E7,{24}E4,B4,B5,{8}E6,{4}C,{8},{16}7,8,
{8}7,,,{16}2,1,{16}2h[16:3],,,6h[16:3],,,4,,
{8}A7/B7,A3/B3,A5/B5,A1/B1,{4}Cf,{8},{16}1,8,
{4}1bpp4[4:2],E6/D6,E7/D7,E8/D8,
{4}6pp1[4:2],E3/D3,E4/D4,E5/D5,
{4}3<6[4:1],B4/B5,7>2[4:1],B8/B1,
{8}4-1[8:1],3,5-8[8:1],6,{4}1-5b[8:1],Cf,
{4}6b>3b[8:1]/3b,{8}1qq6[8:3]/6,2,{16}12,,,3,3,,4,,
{8}2>5[8:1]/7,1,{24}5w1[8:1]/2,6,7,{8}8,{4}5,{16}3/7-3b[8:1],,8,5,
{4}7,{16}2-6[8:1]/1,,3,7,2-4[8:1],,,5,2,,8,,
{8}6pp5[8:3]/3,5,6/4>1[8:1],3,4b,,36,{16}1x/8x,2x/7x,
{4}3xb<6b[8:1]/6xb,{8}8pp3[8:3]/3,7,{16}87,,,6,6,,5,,
{8}2pp1[8:3]/7,1,2/8<5[8:1],7,8b,,62,{16}2,4,
{16}1bh[8:1]/5bh[8:1],,,3h[8:1]/4h[8:1],,,36,,{16}8bh[8:1]/4bh[8:1],,,6h[8:1]/5h[8:1],,,63,,
{8}1b/8b,27,{24}1b/8b,27,36,{8}45,{16}3b/6b,,4,4,{4}5w1[8:1],
{1}5xb<4b[16:10]`Cf/B3/B7/A7/A3,5x<4[16:10],6x<3[16:8],{4}7x>2[16:6],,,E1f,
{8}4-2[8:1],4,5-7[8:1],5,4-1[8:1],4,5-8[8:1],5,
{8}1h[16:1],1h[16:1],2h[16:1]/8h[16:1],2h[16:1]/8h[16:1],7h[16:1]/3h[16:1],4h[16:1]/5h[16:1],2h[16:1]/6h[16:1],5h[16:1]/4h[16:1],
{16}3,3,4,2,6,6,5,7,{32}2,3,4,5,8,7,6,5,1,2,3,4,7,6,5,4,
{4}8b-4b[4:2],,,A8f,
{16}5b-8[8:1],3,6,1,5,,{24}2,3,4,{16}7-3[8:1],,8,5,7,,{24}2,1,8,
{8}4-1[8:1],{24}5,6,7,{8}8-3[8:1],{24}7,6,5,{4}4-1b[8:1]*-7[8:1],4b,
{16}6/2bv5[8:1],,3,4,2,,{24}8,7,6,{16}5/1b-4[8:1],,2,6,1,,{24}7,6,5,
{8}3b/4,{24}2,3,4,{8}6b/5,{24}81,72,63,{4}5xb/4xbw8[8:1],4,
{16}1b-4[8:1],7,2,5,1,,{24}6,7,8,{16}3-7[8:1],,4,1,3,,{24}6,5,4,
{8}8-5[8:1],{24}1,2,3,{8}4-7[8:1],{24}3,2,1,{4}8-5b[8:1]*-3[8:1],8b,
{16}2/6bv1[8:1],,7,8,6,,{24}4,3,2,{16}1/5b-8[8:1],,6,2,5,,{24}4,3,2,
{8}8b/1b,63,{24}8b-4b[8:1]/1b-5b[8:1],72,63,{8}54,8b/1b,,{4}E5f/B4/B5/D6/A6/D4/A3/A5/A4,
{8}2x-5[8:1]/7x-4[8:1],18,{4}2b/7b,{16}3v8[8:1]/6,,2,4,3,,{24}7,6,5,
{8}2-6[8:1],{24}8,7,6,{8}2-4[8:1],{24}1,8,7,{8}2,{24}5,6,7,81,2,3,
6,7,8,
{16}4-1[8:1],,3,6,4,,8,,{16}6v1[8:1]/3,,7,5,6,,{24}2,3,4,
{8}7-3[8:1],{24}1,2,3,{8}7-5[8:1],{24}8,1,2,{8}7,{24}4,3,2,18,7,6,
3,2,1,
{16}4b-8[8:1],,5,1,4,,{24}2,3,4,{16}5b-1[8:1],,4,8,5,,{24}7,6,5,{8}8b/4,{24}2,3,4,{8}1b/5,{24}37,26,15,8xb/4xb-8[8:1],3,2,1,8,7,{4}6,
{8}1xbh[4:1]/5xbh[4:1],,,{24}62,73,84,{4}5xb-1[8:1]/1xb-5[8:1],,
{24}2,3,4,7,6,5,1,2,3,8,7,6,4b/5b,3,2,8b,7,6,3b,2,1,7b,6,5,
{1}4xb>5[4:2]/Cf,
{4}3h[4:1]/4p7[4:1],,{8},5,46,,
{4}7h[4:1]/5q2[4:1],,{8},4,{16}3,5,,,
{8}6h[4:1],E5,,2h[4:1],C,,A1/A8/E1,,
{8}3b/7b,,54,5,43,3,{16}6,5,7,,
{8}4b/8b,,35,3,75,7,{16}2,4,1,5,
{8}8b-4[8:1],7-5[8:1],8,7,2b-4[8:1],1-5[8:1],2,1,
{16}3,3,4,2,5,1,6,6,5,7,4,8,{4}1w5[8:1],
{4}1b`Cf,{8},{16}3xb/6xb,3xb/6xb,3xb/6xb,,,2b/4b,,,{24}7b,5,6,
{16}5xb,,,3b/4b,,,1b/8b,1b/8b,2xb/7xb,,,6b/5b,,,{24}3b,4,2,
{4}4xb,{8},{16}4b/5b,4b/5b,3xb/6xb,,,1bh[8:1]/5bh[8:1],,,7bh[8:1]/3bh[8:1],,,,{24}4b,5,3,
{4}4xb,{16}1bv4[8:1]*v6[8:1]/5b,,,2xb/8xb,{4},
{4}3bh[4:1]/7b,{8}4-8b[8:1],{16}2,2,4,,,3,7,5,6,,
{32}1,2,3,4,6,7,8,1,{8}5-1[8:1],{16}7,7,5,,,6,2,4,3,,
{32}8,7,6,5,3,2,1,8,{8}4b-8b[8:1],4,5b-1[8:1],5,6b,6,
{24}4,5,4,5,4,5,{8}4,36,{32}1b/7xbh[8:1],2,3,4,,,1b/3xbh[8:1],8,7,6,,,1b/5b,26,37,48,
{1}1xb/5xb,
