&title=アンドゥ (feat. 鏡音レン&鏡音リン)
&artist=宮守文学; 鏡音レン; 鏡音リン
&first=0
&des=moying
&lv_5=13+
&inote_5=(138){1},
{4},4x>5[4:12],,,{1},,,
{2}1^4[16:3]/8^5[16:3],Cf,
{24}35,,,2,,,17,,1/7,,,,6,,6,4,,,3,,3,5,,,
{24}7,,7,5,,5,4,,4,3,,,2,,2,4,,,6,,6,4,,,
{24}3^8[6:1]/5,,,4,,,5,,,6,,6,,,,46,,,5,,,35,,,
{24}2,,2,3,,3,4,,4,5,,,7,,7,5,,,3-5[8:1]/5,,,46,,,
{24}3/7b,,,7,,,28,,28,,,,3,,3,5,,,6,,6,4,,,
{24}2,,2,4,,4,5,,5,6,,,7,,7,5,,,3,,3,5,,,
{8}1^4[8:1]/5,4,6,6,4/7^4[8:1],8,47,3,
{8}24,57,{24}1-4[12:1]/8-5[12:1],,27,,,1b/8b,{4},C,
{8}5-2[8:1]*-7[12:1],,5,,18,7,46,5,
{8}24,3,4/6-1[8:1],5,4,E5,E4,8,
{8}7^4[8:1],4,3^8[8:1],2,5h[4:1],,{24}1,,,1,,2,
{24}4,,3,5,,4,6q2b[8:1],,6h[24:10],,,,{8},,8,17,
{8}26,{24}3,4,3,{8}4-6[8:1],3,2-4[8:1],1,7h[12:1],7h[12:1],
{8}5-3[8:1],6,7,{24}1,,1xh[24:4],,,4,4,,,B3/E3/B5/E6,,,,,,
{8}5xh[12:1]/7xh[12:1],4h[12:1]/6h[12:1],{24}3x/5x,,3x/5x,,,,2,,2,4,,4,3,,3,6,,6,
{24}5,,5x/7x,,,7,6,,6,5,,5,4,,4,3,,3,2,,1x/8x,1x/8xb,,,
{24}2xh[24:5],,,1,,1,3xh[24:5],,,4,,4,8hx[24:5],,,7,,7,5hx[24:5],,,6,,6,
{8}3xh[12:1],2xh[12:1]/4xh[12:1],1xh[12:1]/8xh[12:1],2xh[12:1]/7xh[12:1],
{8}6h[12:1],5h[12:1],4h[12:1],3,
{24}7xh[24:5],,,8,,8,6xh[24:5],,,5,,5,1hx[24:5],,,2,,2,4hx[24:5],,,3,,3,
{24}6,,6,5-2[12:1],,5,7,,,6,,,3x,,3,4-7[12:1],,4,2,,,3,,3x,
{8},2^5[8:1],18,7,{24}6,,6,5,,5,4,,,26,,,
{8}B3/E4/E6/A5,7^4[8:1]/2,81,2,{24}3,,3,4,,4,5,,,73,,,
{8}B6/E6/E4/A4,8-5[8:1],5,38,2-6[8:1],1,24,5,
{8}57,6,24,3,1-4[8:1]/8-5[8:1],27,1b/8b,,
{4}E7/B6/B7,E5/B5/B4,E1/B1/B8,E3/B2/B3,
{4}E7/B6/B7,E5/B5/B4,{8}E1,E3,E1,E5,
{8}E7,E5,E3,E5,E7,E5,E1,E5,
{8}E3,E1,E3,E1,E7,E5,E1,E3,
{4}67,54,{8}18,E3,81,E5,
{8}6h[4:1],4,2h[4:1],4,6,45,1,E5,
{8}2,1,23,8,E7,4,18,2,
{8}3/7h[8:1],3,5h[8:1]/2,2,1w5[8:1]/8,37,1b,,
{8}1/7^4[8:1],3x/4xq1[8:1],{24}17,,,3,,3h[24:4],,,,{8}1,28,{24}7,,7,
{8}5-1[8:1],4,5/8-3[8:1],7,28,1,3/5p1[8:1],1p4[6:1]/7,
{24}56,,,7,,7xh[8:1],,,,,,,2-5[8:1]/5,,3,4,,4,2,,,6,,,
{24}47,,6,5,,3,4,,2h[24:4]/5,,,,{8}1p5[8:1],83,12,3,
{8}2h[12:1]/4h[12:1],3h[12:1]/5h[12:1],4h[12:1]/6h[12:1],5<3[4:1]/7h[12:1],6/8h[24:5],{8},,6,
{8}7h[12:1]/5h[12:1],6h[12:1]/4h[12:1],5h[12:1]/3h[12:1],4>6[4:1]/2h[12:1],3/1h[24:5],{24},,,,,,2,,4,
{24}3,,,7,,5,6-2[8:1],,,7,,,4^1[8:1]/6,,,5,,,46,,,6,,,
{24}24,,,57,,,1-4[12:1]/8-5[12:1],,27,,,1b/8b,,,,,,,6,4,6,4,,,
{24}3h[24:5]/5h[24:3],,,,,,4h[8:1]/6h[8:1],,,,,,3h[24:5]/5h[24:3],,,,,,4h[24:2]/6h[24:3],,,,,3xh[24:3],5h[24:3],,,,,,4h[24:2]/6h[24:2],,,,,3xh[24:3],5h[24:3],,,,,E5,,,,3xh[12:1]/4xh[12:1],,,
{24}4xh[12:1]/5xh[12:1],,,5x/6xh[24:11],,,E4,,B2,,,D2,,,D4,,,A7/D8/E8/B7/E7`D6,,,,,,,
{12}36,4,5,36,4,5,3p6[8:1]/6,4,5,6b/3b,,,
{8}3p7[8:1]/4,2,3/4,5,{24}2,,2,3,,3,4,,4,5,,5,
{8}6q2[8:1],7,6/5,4,{24}7,,7,6,,6,5,,5,4,,,
{24}2h[12:1]/3h[12:1],,,3h[12:1]/4h[12:1],,,4h[12:1]/5h[12:1],,,5h[12:1]/6h[12:1],,,7,,7,5,,5,6,,6,2,,2,
{24}4,,,35,,,{16}1^4[12:1]/8^5[12:1],2x/7x,{24},,1bx/8bx,,,,,,,7,,3,5,,6,
{8}4,2,{24}47,,6,5,,5,7^4[8:1],,,4q8[8:1],,,3h[8:1],,,,,,
{24}2,,2,8x,,8x,1,7,1,7,,3,5h[8:1],,,1,,,62,,,,A6,E6,
{24}E5/1h[8:3],,,4x,,4x,,,5x,5x,,,{16}2xh,2xh,{24}2xh,,5,4,,4,6,,6,
{24}5x,7x,5x,7x,,3,4x,2x,4x,2x,,7x,5x,,6x,4x,,5x,3x,,,1x/8x,,,
{24}2/7qq8[4:1],,,6,,,4,,4,,,3,3xh[8:1],,,4,,25,,,25,,,,
{24}4^1b[8:1],,,1q5[8:1]*v6[8:1],,,4,,,,,,,,,A7/D7/A6/E8/E6,,,C/B1/E2/B4/E4,,,,,,
{24}2^4[8:1],,,4v1[8:1],,,6,,6,,,,7V53[8:1],,,4,,,2,,,8,,,
{8}1h[8:1]/7,4,2/8h[8:1],5,3b-6[8:1]/7b-2[8:1],,,,
{4}Ch[8:31],E6,E7,E8,{8}D1,B8,D8,B7,{16}D7,,,E6,,,D5,,
{4}E5,E4,E5,E6,{8}A6,E7,E8,A8,D1,B8,B6,D6,
{4}4x/5x,34,45,56,{8}35,4,46,5,25,3,47,6,
{8}3/5h[4:1],3,2,2,4h[4:1]/6,6,8,8,
{8}3/7h[8:1],3,2/5h[8:1],2,8/1-5b[8:1],37,1b/5b,,
{1}Cf/B3/E3/A3/B7/E7/A7,
{8}2b/8,6b/4,1bv4[8:1]/7v4[8:1],5b/3,1b^3[8:1]/7b^5[8:1],,1/7,,
{24}4^7[8:1],,,1/7p3[8:1],,2,,,2,,,,1,,1,4,,4,5,,,37,,,
{24}2-5[8:1]/5,,3,4,,4,2,,6,,,,7^4[8:1],,,6,,,2/7,,,1,,,
{24}2,,2,4,,4,1q6b[8:1],,1,6q2b[8:1],,,7bh[24:4],,,,,,,,,18,,,
{24}7,,7,5,,5,8p3b[8:1],,8,3p7b[8:1],,,2bh[24:4],,,,,,,,,18,,2,
{24}4,,5,3,,4,6-2[8:1],,,2-4[12:1]/8,,,6/1-7[12:1],,,8,,,1-5b[8:1],,,6,,,
{8}1-3b[12:1]/7,8-4[8:1],1^6b[8:1],8,1b,,
{4}5<4[1:1],Ch[1:1],,,,,,
{24}24,,,57,,,8-4[8:1]/1,,27,,,,
{24}1bx/8bx,,,2,,,17,,1/7,,,,56,,6,4,,,34,,3,5,,,
{24}7,,7,5,,5,4,,4,3,,,25,,2,4,,,65,,6,4,,,
{24}3^8[6:1]/5,,,4,,,5,,,6,,6,,,,46,,,5,,,35,,,
{24}2,,2,3,,3,4,,4,5,,,7,,7,5,,,3-5[8:1]/5,,,46,,,
{24}3/7b,,,7,,,82,,8/2,,,,43,,3,5,,,65,,6,4,,,
{24}2,,2,4,,4,5,,5,6,,,74,,7,5,,,34,,3,5,,,
{8}1^4[8:1]/5,4^1b[8:1],6,6,7^4[8:1],8,47,3,
{8}13,68,{24}45,,36,,,4b/5bh[24:7],,,,E1,,,D1f,
