&title=Mad (feat. WaMi)
&artist=ESAI/WaMi
&first=0.02
&des=MauSu
&lv_5=14
&des_5=MauSu
&inote_5=
(142){4},{8},,,,,,1h[4:1]/5pp8[8:7],
,,2h[4:1],,,,3h[4:1],
,,,4>1[8:1]/8<5[8:1],,,,,5h[4:1]/1pp4[8:7],
,,6h[4:1],,,,7h[4:1],
,,,8>2-7[4:1]/4<6-3[4:1],,,,,3x/7x,
3,1/3-8[8:1],3,{4}3/A6/D6/E6,{8}5/1,{16}2,3,
{8}4/8,8,6/8-4[8:1],8,{4}8/A2/D2/E2,{8}4/1,{16}5,3,
{8}7,7,1/7-2[8:1],7,{4}7/A5/D5/E5,{8}4/8,{16}7,6,
{8}5/1,1,1/3,1,{16}2,4,3,5,{4}4-8b[8:1],
4b/6/Cf,6,{32}6x/B1,B2,B3,B4,B5,B6,B7,B8,{4}6x,
6,6,6x/8<1b[16:3],{32}6x,,,,,,,E1/D1f,
{4}6x,6,{32}6x/B1,B2,B3,B4,B5,B6,B7,B8,{4}6x,
6h[8:1]/2h[8:1],6h[8:1]/2h[8:1],{8}3/7,4/8,{4}5>2[8:1]/1<6[8:1],
1/5,1,{32}1x/B4,B3,B2,B1,B8,B7,B6,B5,{4}1x,
1/4,1/4,1x/5<4b[16:3],{32}1x,,,,,,,E5/D5f,
{4}1x,2h[8:1],{32}3xh[8:1]/B4,B3,B2,B1,B8,B7,B6,B5,{4}4xh[8:1],
5h[8:1]/1h[8:1],{8}1/5,8/4,{4}3h[8:1]/7h[8:1],{8}2-5[8:1]/6-1[8:1],5/1,
{4}6b/2b/Cf,{16}8,2,,3/7,,8,{8}2,5/7,6/3,
1/5,1/5,{16}8,6,,1/5,,8,{8}6,1v6[8:1]/5v2[8:1],3/7,
{4}1b/5b,{16}5,3,,2/6,,5,{8}3,2/4-6[8:1],3/6,
{4}4/8-2[8:1],8/3-8[8:1],3/7-4-1[16:3],7/8w4b[8:1],
8bx/Cf/B8/B4/B5/B3/B6/B2/B7/B1,{16}1,7,,6/2,,1,{8}7,2/4,3/6,
4/8,4/8,{16}1,3,,8/4,,1,{8}3,4/8,2/6,
{4}4/1>4[4:1],4<7[4:1],7>2[4:1],2>5[4:1],
{1}5pp1[2:1]*v4v3[2:1],
{4}7x/3xpp6[4:3],8,1,2,
3pp6[4:3],5h[8:1],4h[8:1],3,
2pp8[2:1],6,5,4<2[4:3],
{8}8,1,2,3,4,5,{4}6h[8:1],
{16}5,7,5,7,4,6,4,6,3,5,3,5,2,4,2,4,
8,6,8,6,1,7,1,7,2,8,2,8,3,1,3,1,
5,6,4,7,3,8,2,1,3,4,2,5,1,6,8,7,
{4}2h[8:1]/5h[8:1],4h[8:1]/7h[8:1],{8}2/7,4/5,{4}8-4[8:1]/1-3[8:1],
8b-6[8:1]/1b-5[8:1],1b/8b,{8}2-4[8:1],1-5[8:1],2-6[8:1],1-7[8:1],
2-5[8:1],1-6[8:1],2,1,{4}1bw5b[8:1]*s5[8:1],1/Cf/B1/B5,
3>6[4:1],6<3[4:1],{8}4,5,6,7,
{16}4,4,8,8,2,2,4,4,8,8,6,6,{4}1-6[8:1]*-7<6[8:1],
1b-3<4[8:1]*-4[8:1],1b,{8}8-6[8:1],8-2[8:1],8-5[8:1],8-3[8:1],
8-4-8b[16:3],8,{4}8,{8}7bv4[8:1]/1bv4[8:1],4-8[8:1],{4}1/7/Cf,
{16}2h[16:3],,,1,{8}3/8<5[8:1],4/7,3/8,3,2,1h[8:5],
D3,B3,C,B6,D7,{16}8,7,{4}1b/6b-1[8:1],
{16}6/4,,,5,{8}6-1[8:1],3,4/6,{32}5,6,{16}5,{8}4/6-1[8:1],3/7,
{16}6/4,,,5,{8}6-1[8:1],3,4/6,{32}5,6,{16}5,{8}4/6-1[8:1],3/7,
{4}6/4,{16}3,4,2,1,4,5,1,8,5,6,8,7,
1,1,3,3,4,4,6,6,{8}6/5,1/8,{4}4b/3b-8[8:1],
{16}3/5,,,4,{8}3-8[8:1],6,5/3,{32}4,3,{16}4,{8}5/3-8[8:1],6/2,
{16}3/5,,,4,{8}3-8[8:1],6,5/3,{32}4,4,{16}4,{8}5/3-8[8:1],6/2,
{4}3/5,{16}6,5,7,8,5,4,8,1,4,3,1,2,
8,8,6,6,5,5,3,3,{8}8-4[8:1],4-8b[8:1],{4}A8f,
{1}3qq8[4:3],
7qq4[4:3],
5qq2[4:3],
{2}1qq6[4:3],{8}E5,E4,{4}E3,
{16}3h[16:3],,,4,{8}3,2,{16}6h[16:3],,,5,{8}6,7,
{16}2h[16:3],,,4,{8}2,1,{16}7h[16:3],,,5,{8}7,8,
{4}4<7[8:1],4>1[8:1],4-8[8:1],4<7b[8:1],
4bx>1b[8:1],4bxv3v2b[8:3]*pp8b[8:3],{2}4bx,
{4}2x/6xqq3[4:3],1,8,7,
6qq3[4:3],4h[8:1],5h[8:1],6,
7qq1[2:1],3,4,5>7[4:3],
{8}1,8,7,6,5,4,{4}3h[8:1],
{16}2,4,2,4,3,5,3,5,4,6,4,6,5,7,5,7,
3,1,3,1,2,8,2,8,1,7,1,7,8,6,8,6,
3,4,2,5,1,6,8,7,5,6,4,7,3,8,2,1,
{4}7h[8:1]/4h[8:1],2h[8:1]/5h[8:1],{8}2/7,4/5,{4}8/1-5[2:5],
{2}1h[8:3],{8}8,8h[4:1],,,2h[16:1],
3h[16:1],8h[16:1],7h[16:1],3h[16:1],4h[16:1],7h[16:1],6h[16:1],
{4}1-5b[8:1],1>4[8:1]*<6[8:1],1w5[8:1],1,
3h[8:1]/7h[8:1],3h[8:1]/7h[8:1],{8}2/6,2/6,5<1[8:1]/1>5[8:1],1/5,
{4}5bp1[8:1]/1bp5[8:1],1b/5b/Cf,{8}2-8b[8:1],6-4[8:1],2-4b[8:1],6-1[8:1],
2-7b[8:1],6-3[8:1],2,6,{4}8bw4b[8:1]*z4[8:1],8/Cf/B8/B4,
6<3[4:1],3>6b[4:1],{8}5,4,3,2,
A8/D8/E8,D2/A2/E2,E7/D7/A6,A3/E4/D4,A5/E5/D5f,{16}3,4,{4}5-1[8:1]/2-4[8:1],
5b-3[8:1]/2b-6[8:1],2b/5b,{8}8>2b[32:3],7<5[32:3],8p4b[32:3],7q3[32:3],
8,7,8q5b[8:1]*p3b[8:1],7/1,{4}8/Cf/B4/B8,{8}2/6,4/5,
{16}7/1-5[32:3],,,8,{8}1,6/4,{4}4/6-2b[16:1],{16}6,5,,,{8}8h[16:1]/4h[16:1],
7h[16:1]/3h[16:1],6h[16:1]/2h[16:1],5/1,{32}1w5b[8:1],2/8,3/7,4/6,{8}5,{4}1/Cf/B8/B7/B6/B5/B4/B3/B2/B1,
{48}1b,D2/E2f,A2/B2,D3/E3,A3/B3,D4/E4,{8}A4/D5,{48}1b,D1/E1f,A8/B8,D8/E8,A7/B7,D7/E7,{8}A6/D6,2<7b[32:3],6>3b[32:3],2v5b[32:3],6v1b[8:1],
2>5b[32:3],6<1b[32:3],2,6,{4}5bw1b[8:1]*s1b[8:1],5/Cf/B5/B1,
{8}3/7,{16}1,8,{8}1,2/6,7/8,6/1,5/2,{16}3,4,
{8}2h[8:1],4h[16:1],6h[8:1],8h[8:3],E4/D4,E5/D5,{4}E6/D6f,
{16}5b,6,,6,{8}5b,7/4,{16}5b,6,,5b/6,,,{8}4b/7b,
4b/7b,{16}2,1,{4}3bh[8:1]/8bh[8:1],{8}8b/3b,{16}4,5,{8}3b/6b,3b/6b,
{4}4h[8:1]/5h[8:1],{16}6,5,7,4,6,5,7,4,6,5,7,4,
6,5,8,1,4,3,8,1,7,2,6,3,{4}A5/D5/A4,
{16}4b,3,,3,{8}4b,2/5,{16}4b,3,,4b/3,,,{8}5b/2b,
5b/2b,{16}7,8,{4}6bh[8:1]/1bh[8:1],{8}1b/6b,{16}8,1,{8}7b/2b,7b/2b,
{4}8h[8:1]/1h[8:1],{16}2,1,3,8,2,1,3,8,2,1,3,8,
2,1,4,5,8,7,4,5,{8}E2/E8,B7/B2,B3/B4/B5/B6,A6/D6/A5/D5/A4/D4/A3,
E
