&title=ウイジン
&artist=CHUBAY
&first=-0.705
&lv_5=13+
&des_5=Coldlight vs Antlier
&inote_5=
(190){4},{8},,,,,,1,
8,2/7,{16}1,8,1-5[8:1],8,{8}1,{4}7b/1>4[16:13],
8,8,8,8-5[8:1],
2/8,1-4[8:1],1/7,8-4[16:3],
{2}8<5[8:5],{16}3,,,2,,,{8}1,
{4}1x-5[8:1],1/7,{2}8x-4[8:1],
{4}1>4[16:9],7,7,7-4[4:1],
4-2[4:1],1-5[4:1],1<5b[4:1],1x,
{8},,2,4,1,1,6,6,
3/7,3/7,2x,{16}8,1,8,1,{8}8,{4}2x/7x,
{8}2h[4:1],8,1,2,7h[4:1],1,8,7,
{16}1,2,3,4,5,6,7,8,{8}5/1h[2:1],5,6>1[2:1],6,
{4}6,1-7-5[4:1],5-3-1[4:1],1<5[4:1],
,1>4[4:1],1,1-5[1:2],
{2}1b,6h[4:1],
7h[4:1],{4}8h[4:1]/1-5b[8:1],1,
{16}8,4,8,4,8,3,8,3,8,2,8,2,8,1,{8}8,
8/1,2-6[8:1]/7-3[8:1],,7b/2b/Cf,,,{4}1-5[8:1],
8/1b,7-3[8:1],2/7b,1-5[8:1],
7/1b-6[8:1],1-4[8:1],1-5[8:1],1,
6h[2:1]/2-8[8:1],2-4[8:1],2,7p3[4:1],
3p7[4:1],7p3[4:1],{2}3p7[4:1],
{8}2,{16}3,4,{8}3,2/5,7,6/4,{4}3h[4:1],
2h[4:1],1h[4:1],8h[4:1],1h[4:1],
7-4[8:1],8-5[8:1],1-6[8:1],2-7[8:1],
{8}2b,,,1b/5b,,,{4}2pp5[16:5],
2,{16}8-4[8:1],7,{8}6,{4}8-2[8:1],8-5[8:1],
8>4[4:1],4<8[4:1],8>4[4:1],4<4b[8:3],
{8},,,Cf,{16},,,,1,8,1,8,
{4}2<5[16:7]/7>4[16:7],2/7,{8},,,,2/5,
2,2/5,2,{16}1,6,1,6,{4}1-5[8:1],
{2}1/6,C,
{16}8b/1h[4:1],7,6,5,{8}4,{16}4b/3h[4:1],5,6,7,{8}8,{16}2b,3,4,5,
{8}8h[4:1],{16}6,5,{8}4h[4:1],{16}1,8,{8}7h[4:1],{16}2,3,{4}4h[8:1],
{16}6,5,6,5,7,4,7,4,8,3,8,3,1-5[8:1],2,1,2,
{4}1,8-4[8:1]/2-6[8:1],C/2>5[8:1]/8<5[8:1],8/2,
7/3h[8:7],{8}8,8,7,7,6,6,
5/2,2,6/3,3,7/4,4,8/5,5,
7/4,{16}6,5,{8}6,7/4,{16}5,6,{8}5,7/4,{16}6,5,
{8}6,4,4,3,2,1,8b,8b,
{1}Cf,
{2},B6/E7/B7,
{1}2q4[8:5],
{2},1/8-4[8:1],
{4}2h[2:1],,,7-4[8:1],
3-8[8:1],5-2[8:1],1-6[8:1],1<4[16:19],
{1}Ch[4:5],
{4},,3,3,
3/5<8[4:3],3,3,3,
3,8,8/2>5[1:1],8,
8,8,8,8,
7,6,5,4,
{8}4/7,{16}6,5,{8}6,4/7,{16}6,5,{8}6,5/2,{16}3,4,
{8}3,2/5,{16}3,4,{8}3,{16}5,4,5,4,5,4,5,3,
6,2,7,1,8bx,1bx,8bx,1bx,8bx,1bx,8bx,1bx,8bx,1bx,8bx,1bx,
8bx,1bx,8bx,1bx,8bx,1bx,8bx,1bx,8bx,1h[16:3],,,,,,,{8}3/8p4[8:1],
2,1,1,{4}6/1q5[8:1],{8}1,7h[8:3],
,4,3,2,{4}8h[4:1]/1>4[8:1],1,
{8}7,6,5,4,3,2>5[8:1],,2h[4:1],
,,6,7,8/3,2,{4}1,
{8}6/1q5[8:1],7,8,8,{4}4/8p4[8:1],{8}8,2h[8:3],
,5,6,7,{4}1h[4:1]/8<5[8:1],8,
{8}2,3,4,5,6,7<4[8:1],,7h[4:1],
,,3,2,1/6,7,{4}8,
{8}1/7<4[8:1],6,7/1-4[8:1],2,1/8-4[8:1],7,8/2-5[8:1],3,
2/6-1[8:1],7,6/4-8[8:1],3,4/7-2[8:1],6,7/3-8[8:1],4,
3/7<4[8:1],6,7/1>4[8:1],2,1/8-4[8:1],7,8/2-5[8:1],1,
2/7-3[8:1],8,7/1-5[8:1],2,{4}1/8-4[8:1],8/2,
{32}1x,2x,3x,4x,5x,6x,7x,8x,1x,2x,3x,4x,5x,6x,7x,8x,1x,2x,3x,4x,5x,6x,7x,8x,1x,2x,3x,4x,5x,6x,7x,8x,
1x,2x,3x,4x,5x,6x,7x,8x,1x,2x,3x,4x,5x,6x,7x,8x,1x,2x,3x,4x,5x,6x,7x,8x,{4}1x/C,
{8},5,6,7,8bh[4:1],2,3,4,
4bh[4:1],7-5[8:1],,7/C,,,{4}3h[4:1],
{2}2h[4:1],1h[4:1],
{4}7h[4:1],6h[4:1],5h[4:1],4h[4:1],
3h[2:1],{8},,,,6/4,6/4,
7/3,7/3,6/2,6/2,5/3,5/3,7/4,7/4,
3-8[8:1],5/2,3/7<4[8:1],6,{4}7/2-5[8:1],2/6,
3/8-6[8:1],8/1-5[8:1],1/2-4[8:1],2/6<1[4:1],
1>4b[4:1],4<7[4:1],7>3b[4:1],3,
{8}C,{16}8,7,{8}6,2h[8:1],{16}6,7,{8}8,{4}3h[4:1],
{8}7-5[8:1],6,7/3-7[8:1],2,3/6-1[8:1],5,6/2-4[8:1],2,
2/8-4[8:1],7,8/5-2[8:1],5,{4}5,{8}7/3-7[8:1],4,
3/8-5[8:1],1,8/4-2[8:1],4,4/6-2[8:1],7,6/1-4[8:1],1,
{4}1,{8}7/3-7[8:1],4,3/8-5[8:1],1,{4}8,
{8}6/4,3,3/5-7[8:1],6,5/2,3,3/5,6,
6/4-2[8:1],3,4/7,6,6/4,3,7/1,2,
2/8-6[8:1],7,8/3,2,2/8,7,7/1-3[8:1],2,
1/6,7,7/1,2,4/6,7,7/5-3[8:1],5,
5/8,7,7/5,4,4/6-8[8:1],6,6/3,4,
4/6,7,5/3-1[8:1],3,3/6,5,3/6,3,
6/4-2[8:1],4,4/7-4[8:1],7,7/3-8[8:1],3,3/5-8[8:1],5,
{4}5/1h[4:1],7-5[8:1],7/2h[4:1],{32}B4,B5,{4},,{16},,,{2}E8/E7/E6/E5/E4/E3/E2/E1/B7/B6/B5/B4/B3/B2/B1/B8/Cf,
{8},,,,,,,7b,
E
