&title=NEO
&artist=じん
&des=NaTsuYu
&first=0
&lv_5=13.9
&lv_7=APPEND 14+?
&wholebpm=190
&inote_5=(190){1},,,,,
{8}4/5,,3,2/4,,6,5/7pp2[16:12],,
{8},,,,,,,,
{8}5/4,,6,7/5,,3,4/2qq7[16:12],,
{8},,,,,,,,
{8}4/5,,3,2/4,,6,5/7-1v8-2[16:12],,
{8},,,,,,,,
{8}5/4,,6,7/5,,3,4/2v7[16:8],,
{16},,5xhb[16:6],,,,,,
{16},6x,7x,8x,1x,2x,3x,4x,
{8}5x,2,2/4q8[16:2],,3/4,,1,2v5[16:2]/7,
{8},1b/2,,,,3,8-4[16:2],2/7,
{8}1/8,,3,2/5,,6,3/7-2[16:2],,
{8},4b,,,,2v5[16:2],1,8,
{8},6,4>1[16:2]/7X,,4/5,,8,2/7q4[16:2],
{8},7/8b,,,,6pp4b[16:8]/3qq5b[16:8],4/5,3/6,
{8},,,,2,8,3q7[16:2]/7,,
{16},,5b,,E1,E2,E3,E4,
{16}E5,E6,E7,,8,,,,
{8}8h[16:6],,,1h[16:2],8h[16:2],2h[16:2],7h[16:10],B1/E1,
{8},B7/C,,B5/E6,,8,3,1<4[16:16],
{8}4,4,3,3,2,2,1p4[16:2],1
,
{8},,,3-7[16:2],,3/4,5,6/s8,
{8}1-5[16:2],,1/8,7,4/6,3,2/5,1-4[16:2],
{8},1/5-8[16:2],,3-8[16:2]/5,,3/7-4[16:2],,7,
{8}2-4-8-6[16:8],,,5,5,,,,
{8}6-2<4[16:8],,,4,4,,2,1,
{8}8>5[16:4],,,7,8<5[16:2],,,,
{8}1-5[16:2],,,,2-6[16:2]/6,,5-1[16:2]/2,,
{8}4-8[16:2]/5,,7-3[16:2]/4,,4q5[16:6]/7,,4/5,,
{8},,8-4[16:2]/1,,1-5[16:2]/8,,1/8,,
{16}E8,B7,B6,E6,E3,B3,B4,E5,
{16}E7,B6,B5,E5,E2,B2,B3,E4,
{8}Cf,Cf,2,,1/3,,4/8,,
{8}1-5[16:2],5-2[16:2],1,,7b,,8p4[16:2],4<7[16:2],
{8}8,,2b-6[16:2],,2/7-3[16:2],,2-5[16:2]/7,,
{8}2/7-4[16:2],,2-4[16:2]/7,,2/7-5[16:2],,7,,
{8},,7,,8/6,,5/1,,
{8}7-3[16:2],3-6[16:2],7,,1b,,2p6[16:2],6v3[16:2],
{8}2,,8b-6[16:2],,1-3[16:2]/8,2,1/8-4[16:2],7,
{8}1-5[16:2]/8,,1/8<5[16:2],,1>8[16:6]/8,,1/8,,
{8},,2,,1/3,,4/8,,
{8}1q5[16:2],5v2[16:2],1,,7b,,7qq5[16:2],2,
{8}7,,3v6[16:2],6>2[16:2],3,,7b-5[16:2],7b,
{8}3-1[16:2]/7,,3/7-4[16:2],,3-8[16:2]/7,,3/7,,
{8},,7,,8/6,,5/1,,
{8}2-4-8-6[16:8],,,6,6,,,6-2<4[16:8],
{8}6,,,4,4,,2>2[16:6],2,
{16},,,,E8,B7,B6,E6,
{16}E4,B3,B2,E2,E7,B6,B5,E5,
{16}E3,B2,B1,E1,B8/7,B7,B6,B5,
{16}B4/6,B3,B2,B1,5,,,,
{8}2-4-8-6[16:8],,,6,6,,,6-2<4[16:8],
{8}6,,,4,4,,2>2[16:6],2,
{8}A5,A6,A7,A8/A2,,,A4,A3,
{8}A2,A7/A1,B8,B7,B6,B5,B4,,
{8}A4,A3,A2,A1/A7,,,A5,A6,
{8}A7,A2/A8,B1,B2,B3,B4,B5,,
{8}5/7,6,6,2/4,3,3,3/6,{16}5,4,
{8}5,3,{16}8,1,7,2,{24}6x,5x,4x,3x,2x,1x,3x,4x,5x,6x,7x,8x,
{8}1bx,B8,B7,2bx,E8,E7,3bx,B7,
{8}B6,4bx,E7,E6,Cf/5bx,,,,
{8},,,,,,,,
{8},,,,,,,,
{8},,,,,,,,
{8},,,,,,,,
{8},,,,,,,,
{8},,,,,,,,
{8},,,,,,,,
{8},,,,,,,,
{8}3,,,3h[16:26],,,,,
{8},,,,,,,,
{8}6,,,6h[16:2
6],,,,,
{8},,,,,,,,
{8}Ch[1:1],,,,,,,,
{8},,,,
{512}1w5[16:2],8w4[16:2]
,,,,,,,,,,,,,,,,,,,,,,,,,,,,,,,,,,,,,,,,,,,,,,,,,,,,,,,,,,,,,,,
{8},1b/8b,,
{8}2-6[16:2],1,2/8-4[16:2],,4b/8,,7-3[16:2],1,
{8}2-5[16:2]/7,,2/8-5[16:2],,8-3[16:2],,8-4[16:2],,
{8}8>3[16:2],,8<5[16:2],,8w4[16:2],,8,,
{8},,
{512}1-5[16:2],8-6[16:2]
,,,,,,,,,,,,,,,,,,,,,,,,,,,,,,,,,,,,,,,,,,,,,,,,,,,,,,,,,,,,,,,
{8},
{512}8-4[16:2],1-3[16:2]
,,,,,,,,,,,,,,,,,,,,,,,,,,,,,,,,,,,,,,,,,,,,,,,,,,,,,,,,,,,,,,,
{8},1bx/8bx,,
{8}5v2[16:2],6,7-2[16:2]/5,,3/7,,4q8[16:2],3,
{8}1w5[16:2]/4,,1,,7/8,6,4/5,3,
{8}1-7[16:2]/2,,1-3[16:2]/8,,1w5[16:2]/2,,1,,
{8},,
{512}8q4[16:2],1>3[16:2]
,,,,,,,,,,,,,,,,,,,,,,,,,,,,,,,,,,,,,,,,,,,,,,,,,,,,,,,,,,,,,,,
{8},
{512}1p5[16:2],8<6[16:2]
,,,,,,,,,,,,,,,,,,,,,,,,,,,,,,,,,,,,,,,,,,,,,,,,,,,,,,,,,,,,,,,
{8},1bx/8bx,,
{8}6/4pp6[16:2],5/3,4qq2[16:2]/2,,4b,,3/5v2[16:2],4/6,
{8}7/5,,6/4v7[16:2],5/3,4/2,,3/5-1[16:2],4/6,
{8}7b/5<8[16:2],,5>2[16:2]/3b,,7b/5w1[16:2],,5b,,
{8},,
{512}3-6[16:2],7-2[16:2]
,,,,,,,,,,,,,,,,,,,,,,,,,,,,,,,,,,,,,,,,,,,,,,,,,,,,,,,,,,,,,,,
{8},
{512}3-8[16:2],7-4[16:2]
,,,,,,,,,,,,,,,,,,,,,,,,,,,,,,,,,,,,,,,,,,,,,,,,,,,,,,,,,,,,,,,
{8},3/7,,
{8}2-4-8-6[16:8],,,6,6,,,6-2<4[16:8],
{8}6,,,4,4,,2>2[16:4],2,
{16},,,,8x,7x,6x,5x,
{16}8x,1x,2x,3x,1x,8x,7x,6x,
{16}4,5,4,5,3,6,3,6,
{16}2,7,2,7,1,8,1,8,
{8}2-4-8-6[16:8],,,6,6,,,6-2<4[16:8],
{8}6,,,4,4,,2>2[16:6],2,
{8}A8,A7,A6,A5/A2,,E2,E3,E4,
{8}E5,E6,E8,E7,E6,E5,E4,A1,
{8}A2,A3,A4,1x/8x,,D8,D7,D6,
{512}4xw8[16:2],5xw1[16:2]
,,,,,,,,,,,,,,,,,,,,,,,,,,,,,,,,,,,,,,,,,,,,,,,,,,,,,,,,,,,,,,,
{8}4xb/5xb,,,,,,,
{8},,,,,,,,
{8},,,,,,,,E
&inote_7=(190){1},,,,,
{8}3/4/6,,4,3/5/6,,5,3/4h[16:12]/6,E6,
{8}E7,B5,B7,B4,B8,3,4,5,
{8}6/5/3,,5,6/4/3,,4,6/5h[16:12]/3,E4,
{8}E3,B4,B2,B5,B1,6,5,4,
{8}3/4/6,,4,3/5/6,,5,3/4h[16:12]/6,E6,
{8}E7,B5,B7,B4,B8,3,4,5,
{8}6/5/3,,5,6/4/3,,4,6/5h[16:12]/3,,
{16},,4xhb[16:12],,,,,,
{16},5x,4x,3x,2x,1x,8x,7x,
{8}6x,3,3/1p5[16:2],,2/1,,4,3v8[16:2]/6,
{8},4b/3,,,,2,5-1[16:2],3/6,
{8}4/5,,2,3/8,,7,2/6-3[16:2],,
{8},1b,,,,3v8[16:2],4,5,
{8},7,1>4[16:2]/6X,,1/8,,5,3/6p1[16:2],
{8},6/5b,,,,4qq4b[16:6]/5pp5b[16:6],3/6,4/5,
{8},,,,2,8,3q7[16:2]/7,,
{16},,5b,,E1,E2,E3,E4,
{16}E5,E6,E7,,8,,,,
{8}8h[16:6],,,1h[16:2],8h[16:2],7h[16:2]/8?-3[16:2],8h[16:10],8?-4[16:2],
{8},8?-5[16:2],,,,8,3,1<4[16:16],
{8}4$,4$,3$,3$,2$,2$,1p4[16:2],1$,
{8},,,3h[16:8]/4h[16:6]/5h[16:4]/6h[16:2],,6h[16:8],5h[16:8],4h[16:8],
{8}3h[16:8],,6h[16:6],5h[16:6],4h[16:8],3h[16:6],6h[16:4],5h[16:2],
{8},3h[16:2]/4h[16:2]/5h[16:2]/6h[16:2],,2h[16:2]/3h[16:2]/6h[16:2]/7h[16:2],,1h[16:2]/2h[16:2]/7h[16:2]/8h[16:2],,1,
{8}2-4[16:6]/8-4[16:6]*-6[16:6],,,B7,B3,,,,
{8}8>3[16:6]*<5[16:6]*<7-3[16:6],,,B7,B3,,2,1,
{8}8>5[16:4],,,7,8<5[16:2],,,,
{8}1-5[16:2],,,,2?-6[16:2],,5?-1[16:2],,
{8}4?-8[16:2],,7?-3[16:2],,4?q5[16:6],,,,
{8}1?-5[16:2],,8?-4[16:2],,1?-5[16:2],,,,
{16}E8,B7,B6,E6,E3,B3,B4,E5,
{16}E7,B6,B5,E5,E2,B2,B3,E4,
{8}Cf,Cf,2,,1/3,,4/8,,
{8}1-5[16:2],8h[16:6],1-3[16:2]*-4[16:2],,1b,,8-4[16:2],1h[16:6],
{8}8-6[16:2]*-5[16:2],,8b,2?-7[380#16:4],6?-3[16:2],,1?-4[16:2],,
{8}5?-8[16:2],,2?-5[16:2],,6?-1[16:2],,,,
{8},,7,,8/6,,5/1,,
{8}2-6[16:2],1h[16:6],2-4[16:2]*-5[16:2],,2b,,7-3[16:2],8h[16:6],
{8}7-5[16:2]*-4[16:2],,7b,,1>3[16:2],2,5<7[16:2],6,
{8}1-4[16:2],,5$/4?-8[16:2],,8-5[16:2],,4$,,
{8},,2,,1/3,,4/8,,
{8}1,1>4[16:2]*-4[16:2],4,,7b,,8,8<5[16:2]*-5[16:2],
{8}5,,2,2>5[16:2]*-5[16:2],5,,7bh[16:2],7?-5[380#16:4],
{8}3?-1[16:2],,7?v4[16:2],,3?v8[16:2],,,,
{8},,7,,8/6,,5/1,,
{8}2-4[16:6]/8-4[16:6]*-6[16:6],,,B7,B3,,,8,
{8}8>3[16:6]*<5[16:6]*<7-3[16:6],,,B7,B3,,2>2[16:6],2,
{16},,,,E8,B7,B6,E6,
{16}E4,B3,B2,E2,E7,B6,B5,E5,
{16}E3,B2,B1,E1,B8/7,B7,B6,B5,
{16}B4/6,B3,B2,B1,5,,,,
{8}2-4[16:6]/8-4[16:6]*-6[16:6],,,B7,B3,,,8,
{8}8>3[16:6]*<5[16:6]*<7-3[16:6],,,B7,B3,,2>2[16:6],2,
{8}A5,A6,A7,A8/A2f,,,A4,A3,
{8}A2,A7f/A1,B8,B7,B6,B5,B4,,
{8}A4,A3,A2,A1/A7f,,,A5,A6,
{8}A7,A2f/A8,B1,B2,B3,B4,B5,,
{8}5/7,6,6,2/4,3,3,3/6,{16}5,4,
{8}5,3,{16}8,1,7,2,{24}6x,5x,4x,3x,2x,1x,3x,4x,5x,6x,7x,8x,
{8}1bxh[16:6],B8,B7,2bxh[16:6],E8,E7,3bxh[16:6],B7,
{8}B6,4bxh[16:6],E7,E6,Cf/5bx,,2?v7[16:16]/3?-7[16:16]/4?v7[16:16],,
{8},,,,,,,,
{8},,,,,,7?v2[16:16]/6?-2[16:16]/5?v2[16:16],,
{8},,,,,,,,
{8},,,,,,5?v8[16:16]/4?-8[16:16]/3?v8[16:16],,
{8},,,,,,,,
{8},,,,,,4?v1[16:16]/5?-1[16:16]/6?v1[16:16],,
{8},,,,,,,,
{8},,,,,,,,
{8}3ト,,,3h[16:26],,,3,,
{8},,,,,,,,
{8}6,,,6h[16:26],,,6,,
{8},,,,,,,,
{8}Ch[1:1],,,,,,,,
{8},,,,
{512}1/8/1?-4[16:2],1?-5[16:2]
,1?-6[16:2],8?-3[16:2],8?-4[16:2],8?-5[16:2],,,,,,,,,,,,,,,,,,,,,,,,,,,,,,,,,,,,,,,,,,,,,,,,,,,,,,,,,,,
{8},Cf,,
{8}2-6[16:2],1,2/8-4[16:2],,4b/8,,7-3[16:2],1,
{8}2-5[16:2]/7,,2/8-5[16:2],,8?-3[16:2],,8?-4[16:2],,
{8}8?>3[16:2],,8?<5[16:2],,8?w4[16:2],,,,
{8},,
{512}1/8/1?-5[16:2],1?-6[16:2],1?-7-5[16:2],8?-6[16:2],8?v6[16:2],8?-5[16:2],,,,,,,,,,,,,,,,,,,,,,,,,,,,,,,,,,,,,,,,,,,,,,,,,,,,,,,,,,,
{8},
{512}8/1/8?-4[16:2],8?-3[16:2],8?-2-4[16:2],1?-3[16:2],1?v3[16:2],1?-4[16:2],,,,,,,,,,,,,,,,,,,,,,,,,,,,,,,,,,,,,,,,,,,,,,,,,,,,,,,,,,,
{8},1bx/8bx,,
{8}5v2[16:2],6,7-2[16:2]/5,,3/7,,4q8[16:2],3,
{8}1w5[16:2]/4,,1,,7/8,6,4/5,3,
{8}1-7[16:2]/2,,1-3[16:2]/8,,1w5[16:2]/2,,1,,
{8},,
{512}8q4[16:2],1>3[16:2]
,,,,,,,,,,,,,,,,,,,,,,,,,,,,,,,,,,,,,,,,,,,,,,,,,,,,,,,,,,,,,,,
{8},
{512}1p5[16:2],8<6[16:2]
,,,,,,,,,,,,,,,,,,,,,,,,,,,,,,,,,,,,,,,,,,,,,,,,,,,,,,,,,,,,,,,
{8},1bx/8bx,,
{8}6/4pp6[16:2],5/3,4qq2[16:2]/2,,4b,,3/5v2[16:2],4/6,
{8}7/5,,6/4v7[16:2],5/3,4/2,,3/5-1[16:2],4/6,
{8}7b/5<8[16:2],,5>2[16:2]/3b,,7b/5w1[16:2],,5b,,
{8},,
{512}3-6[16:2],7-2[16:2]
,,,,,,,,,,,,,,,,,,,,,,,,,,,,,,,,,,,,,,,,,,,,,,,,,,,,,,,,,,,,,,,
{8},
{512}3-8[16:2],7-4[16:2]
,,,,,,,,,,,,,,,,,,,,,,,,,,,,,,,,,,,,,,,,,,,,,,,,,,,,,,,,,,,,,,,
{8},3/7,,
{8}2-4-8-6[16:8],,,6,6,,,7-3>5[16:8],
{8}7,,,4,4,,2>2[16:4],2,
{16},,,,8x,7x,6x,5x,
{16}8x,1x,2x,3x,1x,8x,7x,6x,
{16}4,5,4,5,3,6,3,6,
{16}2,7,2,7,1,8,1,8,
{8}2-4-8-6[16:8],,,6,6,,,7-3>5[16:8],
{8}7,,,4,4,,2>2[16:6],2,
{8}A8,A7,A6,A5/A2f,,A1,A2,A3,
{8}A4,B4,C,B8,D1,B1,C,B5,
{8}A5,A6,A7,1x/8x,,A1,A2,A3,
{512}4x-2[16:2],5x-7[16:2]
,,,,,,,,,,,,,,,,,,,,,,,,,,,,,,,,,,,,,,,,,,,,,,,,,,,,,,,,,,,,,,,
{8}4xb/5xb,,,,,,,
{8},,,,,,,,
{8},,,,,,,,E
