&title=Paradigm Shift
&artist=モリモリあつし
&first=-0.075
&lv_5=14
&des_5=Re;D
&inote_5=
(145){4},{16},,,,,,,,,,,,,3,
,,,2,,,,1p5[8:1]*q5[8:1],,,,1b,,,,2/5,
,2,6,3,,3,7,2,,2,8,3,,3,
,6,,6,3,7,,7,2,6,,6,1,7,,7,
,2h[8:1],,5,{8}3,6/4,{16},6-1[8:1],4,6,{4}4,
{16},2,4,3,5,1,6,2,5,3h[8:1],,5,{8}4h[8:1],{16}6,5b,
,6,,6,,6/4,,6,,7/3,,7,,8/2,,8/2,
,2,,2,,2/5,,2,,3/6,,3,,3/7,,3/7,
,8,4,8,4,7,3,7,3,6,2,6,2,5,1,5,
1,{32}6,5,4,3,2,1,8,7,2/6,3,4,5,6,7,8,1,{16}6b/2b,{8},{16}8b/4b,{8},{16}3b/7b,
,,,,,7-4[8:1],,8,,2-5[8:1],,1,,8-4[8:1],,7,
,2,,1,,8,,8,1,7,,7,1,6b/2b,,6b/2b,
,6,,6,{8}4,{16}4,5,,5,{8}3,{16}3,5b/2b,,5b/2b,
,4/7,,6,5,6,,2,1,2-6[8:1],,1-5[8:1],,2,,1,
,3-8[8:1],,4,,6-1[8:1],,5,,4-8[8:1],,3,,7,,6,
,5,,5,,4,,4,5,4,,3,4,5b/2b,,5b/2b,
,7,,7,{8}5,{16}5,4,,4,{8}2,{16}2,8b/3b,,8b/3b,
,1/6,,7,8,7,,3,4,3-7[8:1],,4-8[8:1],,3,,4,
,3-1[8:1],,3,,6-8[8:1],,6,,4,,4,5,6b/3b,,6b/3b,
,7,,8,,8,,1,8,1b,1b,1b,1b,1bs5[8:1],,,,8b/1b,
,,,7-3[8:1],,8,,2-6[8:1],,1,,8<5[8:1],,8,
,8>3[8:1],,3,,8,,5,,8b/4b,{8},{16}6b/2b,{8},{16}7b/3b,
,6-1[8:1],,7,,3-8[8:1],,2,,6,,7,,6/1,7/2,8/3,
1/4,5-1[8:1],,4,,6-8[8:1],,7,,5,,4,,1b,,1b,
,2,8,1,7,8,6,1,7,{32}2,3,4,5,6,7,8,1,2,3,4,5,6,7,
8,1,{16}2b/6b,,4b/8b,,7b/3b,,1bs5[8:1],{2}1b,
{16},7b/2b,,,,,,,,5,{8},{16}4,{8},{16}3,
,3qq8[2:1],,,,,,,,4,{8},{16}5,{8},{16}6,
,6pp1[2:1],,,,,,,,2,{8},{16}3,{8},{16}4,
,4qq1[2:1],,,,,,8,,7,{8},{16}6,{8},{16}5,
,5h[8:1],,,,5h[8:1],,,,3/6h[8:1],{8},{16}2,6h[8:1],,1,
,1h[8:1],,,,1h[8:1],,,,8/2h[8:1],{8},{16}7,2h[8:1],,6,
,7,3h[16:1],6,,6/3h[8:1],,,,5/2h[8:1],,{48}4,,3,,4,,{16}3,,2/5,
,3/6-1[8:1],,,,6/3-8[8:1],,,,3/5w1[8:1],,,,5b,,,,8h[8:1]/1>4[8:5],
,,,7h[8:1],,,,6h[8:1],,,,5h[8:1],,,,4h[8:1]/5<8[8:5],
,,,3h[8:1],,,,2h[8:1],,,,1h[8:1],,,,8h[8:1]/1pp4[8:5],
,,,7h[8:1],,,,6h[8:1],,,,5h[8:1],,,,4h[8:1]/5pp8[16:9],
,,,3h[8:1],,,,2h[8:1],,,,1b,,,,8h[8:1]/3h[8:1],
{8},{16}2h[8:1]/7h[8:1],{8},{16}1h[8:1]/6h[8:1],{8},8h[8:1]/5h[8:1],{16},6h[8:1]/2h[8:1],{8},{16}7h[8:1]/3h[8:1],
{8},{16}8h[8:1]/4h[8:1],{8},6h[8:1]/2h[8:1],{16},7h[8:1]/3h[8:1],{8},{16}5h[8:1]/1h[8:1],{8},{16}8,
,8/4h[8:1],,,,7/3h[8:1],,,,6/2h[8:1],,,,5/1h[8:1],,,,4/8h[16:1],
,3/7h[16:1],,2/6h[16:1],,1/5h[16:1],,8,7,6,5,{32}4,3,2,1,8,7,
6,5,{16}4w8[2.4828##0.2069],{1},{4},{16},,,4b,
,,,6b/2b,,,,6,
4,8,1,5,3,8,1,6,5,8,1,4,3,8,
1,6,4,8,2,5,3,6,1,7,1,8-6[8:1],1,8,,8,
,3,5,1,8,4,6,1,8,3,4,1,8,5,6,1,
8,3,5,1,7,4,6,3,8,2,8,1-3[8:1],8,1,,1,
,7,5,6,4,5,3,4,2,5,2,6,3,7,4,8,
5,8,4,7,3,6,2,5,1,5/2,6/3,7/4-7[8:1],8/5,1/6,,4,
,3,1,2,8,1,7,8,6,1,6,2,7,3,8,4,
1,4,8,3,7,{32}2,3,4,5,6,7,8,1,{16}6b-2[8:1]/2b-6[8:1],,,,,,,,1,
4,3,4,2,5,4,5,3,6,5,6,2,5,4,
5,1,4,3,4,2,5,4,5,3,7,3-1[8:1],5,3,,3,
,8,5,6,5,7,4,5,4,6,3,4,3,7,4,5,
4,8,5,6,5,7,4,5,4,6b/2b,{8},{16}4b/8b,{8},{16}3b/7bs3[8:1],
,,,,,2,,2,,3/7,,3,,4/8,,4,
,5/1,,5,,6/2,,6,,7/3,,7,,8/4,,8/4,
,7,1,7,1,8,2,8,2,6,4,6,4,5,3,5,
3,8,4,8,4,{32}7/3,6/2,5/1,4/8,3,2,1,8,{16}7-5[8:1],,4b,3b,7b,2b,3b,
4b,8b,,,,,,,,6h[16:3],,,,,,4,
,4>1[4:1],,,,,,,,5h[16:3],,,,,,5,
,5<8[4:1],,,,,,,,4h[16:3],,,,,,4,
,4>1[4:1],,,,,,6,,5,{8},{16}5,{8},{16}4,
,3,,,,,,,,7,{8},{16}5,{8},{16}4,
,2,,,,,,,,2,{8},{16}4,{8},{16}5,
,7,,6,,3,,4,,7,,{48}6,,5,,4,,{16}3,,2,
,1b,
E
