&title=Homicide Moon
&artist=IOSYS
&first=-0.1
&ChartEditor=MaiCreator
&lv_5=14
&des_5=悪魔の妹- フランドール・スカーレット
&inote_5=(180){4},,{16}6,4,5,3,6,4,5,3,
6,4,5,3,{4}6b,7<4[8:1],{8}7,1>4[8:1],
,1,8,7,{4}6<1[8:1],{8}6,4>1[8:1],
,4,5,6,{4}7p3[8:1],{8}7,1q5[8:1],
,1,8,7,{4}6-1[8:1],{8}6,2-5[8:1],
,2/6,{4}7b,1>4[8:1],{8}1,7<4[8:1],
,7,8,1,{4}2<7[8:1],{8}2,6q2[8:1],
,6,5,4,{4}3-5[0.5##0.1667],{8}7,3/6-1[8:1],
,6,{4},{8}8/4,{16}7,2,{8}6,1/5,
{16}2,7,{8}3,{4}8b/4b,{8}7-3[8:1],3-7[8:1],{4}7<8[4:1],
{2},{4}1>4[8:1],{8}8,7<4[8:1],
,8,{4}1-4[4:1],4-7[4:1],7-2[4:1],
2-5[4:1],5<8[4:1],{2}8>3[4:1],
{8}7-4[8:1],2-5[8:1],7,2,7-3[8:1],3-7[8:1],{4}7<8[4:1],
{2},{4}6<1[8:1],{8}5,4>1[8:1],
,5,{4}6,{8}1/7,6,3/5,2,
1/8,7,6/4,3,{16}8,1,6,3,7,2,5,4,
{32}8,7,6,5,4,3,2,1,{4}8b,{8}6-8[8:1]/2-4[8:1],7/3,{4}6/2,
{8}8/4,6/2-6[8:1],,1-5[8:1],,8-4[8:1],,7-3[8:1],
{2},{8}3-1[8:1]/7-5[8:1],2/6,{4}3/7,
{8}1/5,3/7-3[8:1],,8-4[8:1],,1-5[8:1],,2-6[8:1],
{2},{8}6-8[8:1]/2-4[8:1],7/3,{4}6/2,
{8}8/4,2/6-2[8:1],,4-7[8:1],,5p1[8:1],,3q7[8:1],
{2},{8}7/3,6/2,{4}5/1>4[8:1],
{8}1,8p4[8:1],,8,2,1q5[8:1],,1,
8,3b/6b,{4},{8}7,6,{4}5pp1[4:1],
{8}5,2>5[8:1],,2,1,8,{4}7-4[8:1],
{8}7,1b,{4},{8}2,3,{4}4qq8[4:1],
{8}4,7<4[8:1],,7,8,1,{4}2>5[8:1],
{8}2,8b,{4},{8}6,7,{4}8qq4[4:1],
{8}8,3>8[8:1],,3,4,5,{4}6-1[8:1],
{8}6,4b,{4},{16}8,7,6,5,1,2,3,4,
7,6,5,4,2,3,4,5,7,6,5,4,3,2,1,8,
7/2,3,4,5,6,7,8,1,2/6,7,8,1,2,3,4,5,
6/3,2,1,8,7,6,5,4,7/3,6,5,4,3/1b,4,5,6,
7/2,3,4,5,6/8b,5,4,3,2/7,6,5,4,3,2,1,8,
7/2,3,4,5,6,7,8,1,7/2,6,5,4,3/1b,4,5,6,
7/2,3,4,5,6/8b,5,4,3,2/7,6,5,4,3,2,1,8,
7/2,3,4,5,6,7,8,1,6/2,7,8,1,2,3,4,5,
6/3,2,1,8,7,6,5,4,{4}3-7[8:1],3/6-4[8:1],
6/2-8[8:1],2,{8}8/1,8/1,7/2,7/2,
{16}8,1,7,2,8,1,7,2,{8}6/3,1,7/2,3,
6/4,7-4[8:1]/1-4[8:1],6/2,7/1,{4},{8}6/1,{16}7,8,
{8}6,1/5,7/3,6/2,3/7,8,2/7,6,
3/5,8-5[8:1]/2-5[8:1],7/3,8/2,{4},{8}3/8,{16}2,1,
{8}3,8/4,6/2,7/3,6/4,8,5/3,1,
7/5,6/4,5/3,4/2<7[16:3],,2,{16}6V82[8:3],5,{8}4,
1,2,3,4,5>7[2:1],2,1,8,
7V13[4:1],6,5,6s2[4:1],,,,,,8-4[0.5##0.1667]/1s5[0.5##0.1667],
{4},{2}8/1,
{4}7p3[8:1],{8}7/1,2pp5[8:3],,2/8,7,6q7[16:3],
{2},{8}7-4[8:1],1-4[8:1],7,1w5[8:1],
,1,,2h[4:1],,{16}1,2,1,2,1,2,
{8}8/3,8/3,{4}8qq4[4:1],{2}2pp6[4:1],
{8}7,7-4[8:1],,7/2-6[8:1],,2,,{16}8,7,
{8}6,6p2[8:1],,1pp4[8:3],,8,7,6p3[4:1],
{2},{16}2/1h[16:3],3,4,5,{8},{16}7/8h[16:3],6,
5,4,{8},{16}2/1h[16:3],3,4,5,{8},{16}7/8h[16:3],6,5,4,{8},{16}8/1,
7/2,6/3,5/4,{8},7bp4[8:3]/2bq5[8:3],{1},{8}5-7[8:1]/3-1[8:1],
7-4[8:1]/1-4[8:1],{4}5/3,
{2},{4}7<4[8:1],{8}8,1>4[8:1],
,8,{4}7V53[4:1],3V17[4:1],7V53[4:1],
3V17[4:1],7<1[4:1],{2},{8}7-3[8:1],
2-6[8:1],7,2,7-5[8:1],5-1[8:1],1-3[8:1],3-7[8:1],
{2},{4}6<1[8:1],{8}5,4>1[8:1],
,5,{4}6,{8}8/2,3,6/4,7,
8/1,2,3/5,6,{16}8,1,6,3,7,2,5,4,
{32}8,7,6,5,4,3,2,1,{4}8b,{8}6<8[12:1]/2>4[12:1],7/3,{4}6/2,
{8}1/5,3/7-4[8:1],,7/1-5[8:1],,1/8-4[8:1],,8/2-5[8:1],
,2,{4},{8}3>1[12:1]/7<5[12:1],2/6,{4}7/3,
{8}8/4,6/2-5[8:1],,2/8-4[8:1],,8/1-5[8:1],,1/7-4[8:1],
,7,{4},{8}6<8[12:1]/2>4[12:1],8/4,{4}6/2,
{8}1/5,7/3q7[8:1],,5p1[8:1],,4v7[8:1],,5v2[8:1],
{2},{8}1q5[8:1],8,{4}7-4[8:1],
{8}7,8>3[8:1],,8,7,6V82[4:1],,6,
5,4b,{4},{8}7,6,{4}5pp1[4:1],
{8}5,2>5[8:1],,2,1,8,{4}7-4[8:1],
{8}7,1b,{4},{8}2,3,{4}4qq8[4:1],
{8}4,7<4[8:1],,7,8,1,{4}2>5[8:1],
{8}2,8b,{4},{8}6,7,{4}8qq4[4:1],
{8}8,3>8[8:1],,3,4,5,{4}6-1[8:1],
{8}6,4b,{4},{16}7,6,5,4,3,2,1,8,
7/2,3,4,5,6,7,8,1,2/6,7,8,1,2,3,4,5,
6/3,2,1,8,7,6,5,4,3/7,6,5,4,2,3,4,5,
8,7,6,5,1,2,3,4,7,6,5,4,3/1b,4,5,6,
7/2,3,4,5,6/8b,5,4,3,2/7,6,5,4,3,2,1,8,
7/2,3,4,5,6,7,8,1,2/6,7,8,1,2/4b,1,8,7,
6/3,2,1,8,7/5b,8,1,2,6/3,7,8,1,2,3,4,5,
6/3,2,1,8,7,6,5,4,3/7,6,5,4,3,2,1,8,
7/2,3,4,5,6,7,8,1,{4}2>5[8:1],7>2[8:1],
{2}4<7[8:1],{8}8/1,6/3,7/2,5/4,
{16}8,1,6,3,7,2,5,4,{8}3/6,8,2/7,6,
3/5,2-5[8:1]/8-5[8:1],3/7,2/8,{4},{8}3/8,{16}2,1,
{8}3,8/4,2/6,3/7,6/2,1,7/2,3,
6/4,1-4[8:1]/7-4[8:1],2/6,1/7,{4},{8}6/1,{16}7,8,
{8}6,1/5,3/7,2/6,3/5,1,4/6,8,
2/4,3/5,4/6,5/7>2[16:3],,7,{16}3V17[8:3],4,{8}5,
8,7,6,5,4<2[2:1],7,8,1,
2V86[4:1],3,4,3s7[4:1],,,,,,3b/6b,
{4},{16}8,1,8,1,7,2,7,2,
6,3,6,3,5,4,5,4,7,8,6,1,5,2,4,3,
1,2,8,3,7,4,6,5,7,1,5,3,8,2,6,4,
8,1,6,3,7,2,{8}5p2[2:1],,1,2,3,
4s8[16:3],4,{4}4,{2}7p4[4:1],
{8}1,2-5[8:1],,2/6-1[8:1],,6/3-8[8:1],,3/7-4[8:1],
,7,,2pp5[16:5],,6,7,8-4[8:1],
{2},{16}7/8h[16:3],6,5,4,{8},{16}2/1h[16:3],3,
4,5,{8},{16}7/8h[16:3],6,5,4,{8},{16}2/1h[16:3],3,4,5,{8},{16}8/1,
7/2,6/3,5/4,{8},7bp4[8:3]/2bq5[8:3],{1},{4}6<1[8:1],
{8}6,5,
{2}4z8[16:3],{4}7V51[8:1],{8}7,2V48[8:1],
7h[4:1],2,,1b/5h[8:3],{4},{8}1b-7[8:1],6h[8:1],
1b-3[8:1],4h[8:1],1b<2[4:1],5h[8:1],,,,1bs5[16:3]/6b<1[16:3],
{2},{8}1-6[8:1],2,3,4-1[8:1],
5,6,7-4[8:1],8,1-4[8:1],8,7-4[8:1],8,
2-5[8:1],1,7>6[8:3],8,7,{4},{8}2<3[0.1667##0.5],
{2}2,{16}6,5,6,3,4,3,6,5,
7,3,4,2,6,5,8,3,{4}4>8[4:1],8<4[4:1],
4V28[4:1],8V64[4:1],4>8[4:1],8V64[4:1],
4V28[4:1],8p5[8:3],{2}4>5[1:1],
{1},{8}1>4[8:1],
8<5[8:1],1,8,{4}1>5[4:1],5<1[4:1],
1V35[4:1],5V71[4:1],1V35[4:1],5<1[4:1],
1q4[8:3],5q8[8:3],,,,7h[1:1],
{2}1h[4:3],
,{8}7-4[8:1]/1-4[8:1],6/2,{4}7/1,
{8}1/5,6/2-6[8:1],,1-5[8:1],,8-4[8:1],,7-3[8:1],
{2},{8}8-5[8:1]/2-5[8:1],7/3,{4}8/2,
{8}2/6,3/7-3[8:1],,8-4[8:1],,1-5[8:1],,2-6[8:1],
{2},{8}6-1[8:1]/4-1[8:1],3/7,{4}6/4,
{8}6/2,7/3-7[8:1],,4-8[8:1],,5-1[8:1],,6-2[8:1],
{2},{8}7/3,6/2,{4}5/1>4[8:1],
{8}1,8p4[8:1],,8,2,1q5[8:1],,1,
8,3b/6b,{4},{8}8/4,3/7,{4}6/2>5[8:1],
{8}2,7-4[8:1],,7/1-5[8:1],,1/8-4[8:1],,8/2-5[8:1],
,2,{4},{8}1/5,6/2,{4}3/7<4[8:1],
{8}7,2-5[8:1],,2/8-4[8:1],,8/1-5[8:1],,1/7-4[8:1],
,7,{4},{8}8/4,7/3,{4}2/6-2[8:1],
{8}6,1-5[8:1],,8-3[8:1]/1-3[8:1],,8-6[8:1]/1-6[8:1],,8w4[8:1]/1w5[8:1],
,8/1,{4},{8}8,7,{4}6pp1[4:1],
{8}6,3qq8[4:1],,3,4,5q8[4:1],,5,
4,3<2[0.5##2],
E
