&title=絆 ~シンクロハーモニー~
&artist=陶山恵実里 / 桑原由気
&first=-0.059
&des_5=kano
&lv_5=14+
&des=kano
&inote_5=(153){4},,,2h[1:1]/7-5-3-1-6b[4:3],
{1},{4},,{16}3,
5,4,6,2,4,3,4,
1,5,4,5,8,6,5,6,1,7,2,8,3x,3x,4,2,
8x,8x,1,7,5,6,4,5,3,4,1,8,2,6,4,6,
2,8,5,7,3,4,2,5,1,6,8,7,{8}1h[16:1],8/2h[16:1],
4/3h[16:1],7/5h[16:1],1/6h[16:1],2/8h[16:1],7h[16:1]/1h[16:1],{16}6,5,4/3b,2,1,8,
5b,4,3,2,6b,5,4,3,8b,7,6,5,2,4,2,4,
8,4,8,4,6,4,6,4,7,4,8,4,1,4,1,4,
2,5,2,5,3,6,3,6,4,5,4,5,3,3,7,7,
1,1,6,6,2,2,8,8,1,7,3,5,{8}6b/2b,{16}1,7,
3,8,5,5,6,4,8,1,6,2,4,4,3,5,1,8,
4,6,2,8,5,7,1,8,2,7,1,8,{32}2b,3,{16}4,8,2,
{32}7b,6,{16}5,1,8,{32}2b,3,{16}4,6,6,{8}1b,{16}7,5,{8}6h[8:1],{16}5,6,
4,5,3,4,2,5,1,7,{8}8h[8:1],{16}6,6,{8}1h[8:1],{16}5,5,
{8}2h[8:1],{16}4,4,{8}3h[8:1],{16}5,5,{8}6xh[8:1],1,{16}2,3,4,5,
8,7,6,5,3,2,1,8,4,5,6,7,2bx,3,4,5,
1,8,7,6,5/4,3,2,1,8,7,6,5,{4}4v1[8:1]/8v5[8:1],
8/4,7b/3b,,5h[4:3]/2>3-5-7>8v2[4:3],
,,,5,
{8}2/6,6h[8:3]/2h[8:3],,,,,{4}1h[4:3]/7<6>5>4>3>2<1-4-7[4:3],
,,,1,
{8}7/3,7h[4:1]/3h[4:1],{16},,,,,,,,8/5,,,7,
{8}5,6/4,2h[8:1],4,5/1,1/5,{16}6/2,,,2,
{8}4,3/5,7h[8:1],5,4/8,3/7,{16}2,2,8,3,
7,4,6,5,7,8,6,1,5,2,{8}4/3-7[8:1],,5/3,
6,8w4[8:1],,8,,,{4}E3h[2:1]/B2h[2:1]/B3h[2:1],
{16}E5,E6,E7,E8,{8}E1,7x,5,6,{4}3/4pp7[8:3],
{8}2,2h[4:1],,,1,8/2,{4}E7h[2:1]/B7h[2:1]/B6h[2:1],
{16}E5,E4,E3,E2,{8}E1,2x,3,5,{4}6/4-8-2>3[16:5],
{8}6,7h[8:3],,,4,4,3/5,{16}E4,E3,
E2,E1,{8}6qq8[16:5],,3,2,1,{16}2,3,4,5,
{8}8,7/3-8-4b[4:1],,,,,{4}5/3-7[8:1],
{8}3/7,8-4[8:1],,8-5[8:1]/1>4[8:1],,8/1,,7/2,
5/4,8-4[8:1]/1V35[16:3],,8b/1b,,,6h[4:1],E6,
E5,E4,{16}B6h[2:1],,,E7h[16:5],,,{8}B1h[4:1],,E5,
E6,E7,{16}B1h[2:1],,,B2h[16:5],,,{8}B6h[4:1],,3x,
3x,3x,{16}1-5[8:1],,,8,{8}1,7,{4}6-3[8:1]/2-7[8:1],
6-1[8:1]/2-5[8:1],6V48[16:3]/2V48[16:3],{8},,,7/1,
6/2,2/6,{16}3-6[8:1],4,2,4,{8}3,8h[4:1],,6,
5,8,{16}4b/3b,,,3b/1b,,,{8}7b/6b,{4}5/8h[8:1],
4/6h[8:1],{16}5h[8:1]/3h[8:1],,,3h[8:1]/5h[8:1],,,{8}2/4h[8:1],{4}2V47[4:1],
7V51[4:1],1>7[4:1],7,{8}8,8,
7/1,7,2/8,2,7/3,6,{16}4,5,3,6,
4,5,3,4,4,3,5,5,4,6,3,5,{24}A3,E3,E2,A1,A8,E8,
E7,A6,,{8}4,3/5,2/4,8/1,6/5,7-3[8:1]/3<5[8:1],6/2,
{4}3/7-1[8:1],7/2>5[8:1],{16}2/5,6,7,8,{8}1-4[8:1],3,
5/1<6[8:1],7,{4}1/3-7[8:1],3/5,{8}2-5[8:1]/1-4[8:1],3/8,
{4}1-7[8:1]/2-7[8:1],2/1-5[8:1],3b/1b,{8}2/8,{24}2x,3x,4x,
{8}8/5x,{24}7x,6x,5x,{16}3,4,3,4,2,1,2,1,{8}8/3,4,
{4}6v8[8:1]/5-8[8:1],6/5>2[8:1],5<8[8:1],{8}4/5-2[8:1],4,
5/3-8[8:1],3,{4}3x/7<4[8:1],{16}A4,A3,A2,A1,{8}8-5[8:1]/7-4[8:1],6,
{4}7/8-3[8:1],8x/1-6[8:1],1x/2-5[8:1],{8}8-4[8:1],8,
3,3,E6/B6/B5,B2/E3/E2,7/1,5/3,7-5[8:1]/4-8[8:1],1/3,
{4}4/7-3[8:1],7<4[8:1]/3>8[8:1],7/3,{8}2v4[8:1],1,
2/6,8,{16}E7,E6,B5,B4,{8}1,1/8,3v6[8:1]/7-4[8:1],4/8,
{4}7/3<8[4:1],8-5[8:1],1-4[8:1],{8}1x/3x,2x,
6-2[8:1],4,{4}6/7<6-4-8[16:3],7b/8b,{8}2>5[8:1],1,
{4}2/6-8[8:1],6/1-5[8:1],1/7<4[8:1],{8}7/3-8[8:1],2,
3-5[8:1]/7-5[8:1],5-1[8:1],,,,,5/7h[8:1],5,
4/8,1,4/2h[8:1],4,3/5,6/4,{16}7,5,7,5,
6,4,6,4,5,3,5,3,4-1[8:1],3,4,3,{4}4b-7-2-5[8:3],
{16},,,,,,,,E4,E3,E2,A1,{8}7h[8:1],{16}5,6,
{8}5h[8:1],7-4[8:1],,7/8,1,2,{16}3,4,{8}3h[8:1],
5,4/6h[8:5],,,{4}B5/E5/B4,{8}2,2,
2/4,2,2/1,2,{16}2/8,3,4,5,{4}8h[2:1],
,B2/E3/E2,,2>6[2:1]/6<2[2:1],
,,,4/8,
{8}7/3,7h[4:1]/3h[4:1],,,,,{4}7p4[2:1]/2q5[2:1],
,,,6/3,
{8}5/3,3h[4:1]/5h[4:1],,,,,{4}2h[8:5],
{8}4,4,,5,6,7,{4}4/8h[2:1],
B2/E2,3h[2:1],E7/B6,8V25[8:3]*V63[8:3],
{8},,,,,6/2,,3/5,
8/6,1-6[8:1]/3-6[8:1],,3b/1b,,,1h[16:1],4,
4,5/2,6/3,7,1,2/8,{16}6,4,{8}5,
7/3,7h[4:1]/3<1[4:1],,,,,6h[16:1],{16}2,1,
{8}2,3/8,{16}6,5,{8}7,1/2,3/4,{4}6h[4:1],
{8}1-5[8:1],1,{16}6,7,{8}8,3,3,4/2,4/2,
{16}3,5,2,4,{8}1,1,3/7,6/4,{16}5,3,6,4,
7,2,8,1,6,2,5,3,{4}4-8[8:1],2-6[8:1],
{8}2,7<4[8:1],,3-6[8:1]/7-2[8:1],,7/3,,8b/4b,
7b/3b,6b/2b,,8h[4:1]/4h[4:1],{16},,,,,,5,3,
{8}3,4h[8:1],{16}3,2,1,8,7,6,5,4,{8}3/7,{16}6,5,
{8}6,7/4,{16}8,1,2,3,4,5,6,7,{8}8/1,3/4,
4/3,6/2,{16}5/8-4[8:1],,,1,{8}8-6[8:1],2,{4}1b/8-5[8:1],
4b/8-3[8:1],1b>4[8:1]/8<5[8:1],8b/1b,{8}7/2,{16}3,3,
{8}4,1,{16}8,7,6,5,{8}4/8,7/3,6/2,{16}5,5,
{8}4,6h[8:1],{16}7,8,1,2,3/4,5,6,7,1bx,8x,3x,4x,
2bx,1x,4x,5x,3bx,2x,5x,6bx,3x,2x,6bx,7x,3bx,2x,6x,7x,
3bx,2x,6x,7x,2bx,1x,5x,6bx,1,8,4bx,5x,3,6,3,6,
2,7,2,7,1,8,1,8,3,4,3,4,2,5,2,5,
1,6,1,6,8,7,8,7,5,7,5,7,{24}4,8,4,8,4,8,
{8}4b,7,6/2,8/7,2/4,6/5,4/7<4[8:1],2/8,
{24}7/4,3,2,1,,,4x/1x,2/5,3/6,4/7,,,7x/4x,6/3,5/2,4/1,,,{8}7/8,{16}6,4,
{8}7/3,1/5,{16}1/5,2/6,7/3,8/4,1,2,3,4,{8}5/2>5[8:1],7/1,
{24}5x/2x,6,7,8,,,8x/5x,7/4,6/3,5/2,,,5x/2x,6/3,7/4,8/5,,,{8}2/1,{16}4,3,
{8}5/2,{16}8,2,{8}7b/3b,{16}5,4,5,6,{8}5,7/3-6[8:1],1/5,
{24}3/7,8,1,2,,,2>5[8:1],1,8,7,,,5,6,7,8,,,{8}5/1,8/4,
6-3[8:1]/2-7[8:1],4/8,{4}6b/2b,{8}4/8,7/3,2/6-3[8:1],8/4,
{24}6/2,1,8,7,,,7<4[8:1],8,1,2,,,4,3,2,1,,,{8}4/8,{16}1/5,2/6,
{8}7v2[8:1]/3v6[8:1],5/1,{4}7b/3b,{16},,,,8-4[8:1],7,{8}6,
8/3,2>5[8:1],{16}5/2,6,7,8,1,6,7,8,{8}1/5,{24}3,4,3,
{8}4,2,{16}8/1,7,6,5,4,6,5,4,{8}3/1>5[8:1],2/8,
{4}1/7v4[8:1],{16}7/3,2,1,8,7/3,2,1,8,{8}7/4,{24}6,5,6,
{8}5,7,{16}4/8,3/7,2/6,5/1,4,3,2,1,{8}8/6-2[8:1],5,
{4}4/6,{16}4,5,6,7,8/4,5/1,6/2,7/3,{8}4b/8b,5/6,
2/8,3/4,{16}6,5,{8}6,7/3,8/2,1h[4:1],5,
6,8,6/2h[4:1],5,6h[4:1],1,{16}4,6,3,5,
1,8,5,6,4,7,3,1,2-6[8:1],6,4,8,{4}2b>8[2:1],
{8},,,,,,B2/B3,8-4[8:1],
7/1,8,,2-6[8:1],3/1,2/8,,7/5<3[8:3],
6/4,5/3,{16},,,,,,1,2,{4}3-6[8:1],
3/7-2[8:1],{8}4v1[8:1],3,8<5[8:1],7,3,3,
2,2,{16}1/5,6,7,8,1/5-1[8:1],2,3,4,{8}5,3-7[8:1],
3,3h[8:1],,8-4[8:1],8,8h[8:1],,3,
2,5/1V35[16:3],,6,7,8,{16}3,4,3,7,
4,5,4,6,5,6,5,8,1,7,{8}2,4/3,5/2,
7/1,8/2,3/1-5[8:1],2/8,{4}1b/7b,{8}6,6,
{16}5,5,7,4h[8:1],,5,4,6,5,7,4,8,{8}3,4/2,
{16}1,1,7,2h[8:1],,,{8}3/1,4/8,7/5,6-4[8:1],{16}8,6,
,8,,1-5[8:1],{8}1,{16}7,1,,8h[8:1],,,7/3,6,5,4,
1,2,3,4,6x,6x,6x,6x,6x,6x,6x,6x,{8}7b/5b,{16}3,4,
3,3,,5/2,,6,7,8,1,2,3,4,{8}5h[8:1],{16}B5,2h[8:1],
,B2,{8}6h[8:1],E3,B4/B5,E7,B8/B1,6bx/3bx,{16}4,5,
4,5,3,3,{8}6,5/2,7/4,2/1,{16}6,4,8,4,
7,4,5,4,8,3,6,3,7,3,8,3,{4}2>5[4:1]/1<6[4:1],
{32},,,,,,,,,,,,,,,,E2,E3,E4,E5,E6,E7,E8,E1,{8}1xh[4:1],4,
4,6h[4:1],,5,6,7/4,8/5,6/3,
2/1,4h[4:1]/8h[4:1],,,{4}B7/E7/B2/E3,{8}4,4,
4/6,6,6/8,8,8/1,1,2b/1b,3b/7b,
,6pp5[8:3],5,4,3,2,{4}1h[4:1],
B7,3h[4:1],B6/E6,{8}E3h[4:3],B3h[8:5],
B6h[2:1],E7h[8:3],{4}C,{8},,8h[4:1],E2,
{4}B2,6h[8:1],B3/E4,{8}E7h[4:3],B6h[8:5],
B3h[2:1],E3h[8:3],{4}C,{8},,4/5,5/3,
{4}3/5-8[8:1],2-5[8:1],2/7<1[2:1],{8}E7,E5,
E3,E1,{4}Ch[4:1],E7/D7/A7,{8}1/8,6/3,
{4}2/8-5[8:1],3-8[8:1],3/6<4[2:1],{8}E7/B6,E1/B8,
E3/B2,E5/B4,{4}Cfh[4:1],{8},,6/7-4[8:1],2/3,
{16}7/8-5[8:1],1,{8}2,8/3>8[8:1],4,{24}7-3[8:1],6,5,4,,,{8}7,{16}8,8,
{8}1/4,2/5,{16}3/6,7/4,8/5,6,7,8,1,2,{8}3-1[8:1]/5-7[8:1],4,
{2}3v5[8:1]/5v3[8:1],{16}7/1-5[8:1],2,{8}3,6/1>4[8:1],6,
7,7,{16}8,8,4,6,1,7,3,3,{8}4/2-7[8:1],1/5,
{4}2/8<4[4:1],{16}4V68[4:1],3,2,1,A1,A2,A3,A4,{8}4x-2<1[8:1],7,
4-6<7[8:1],8,{4}4-8[8:1],{8}4/3,2,1/7,{16}5,4,
{8}6,7/3,5/1,{16}7,5,{8}6,8/1,{24}2,3,4,5,6,7,
8,1,2,5b/3b,6,7,8,1,2,3,4,5,{32}6v3[8:1]/2v7[8:1],1,8,7,6,5,4,3,{4}A6f/2<1<8<7<6>5>4>3b[4:3],
,,,B7/E7/B6/Cfh[16:0],
E
