&title=エアーマンが倒せない
&wholebpm=175
&artist=SOUND HOLIC feat. 花たん
&first=0
&des=Reishi
&lv_1=
&lv_2=
&lv_3=
&lv_4=
&lv_5=12
&inote_1=
&inote_2=
&inote_3=
&inote_4=
&inote_5=
(175)
{8},,,,,8,8,8,
{8}1h[8:4],,,,5,4,,3h[8:3],
{8},,6,,4,4,5,5,
{8}4h[8:2],,3h[8:2],,2h[8:2],,1,,
{8}28,37,46,5,,5,5,5,
{8}4,,4,,6,,6,,
{8}3,,3,,5,,5,,
{8}2h[8:2],,1,,7h[8:2],,8,,
{8}26,3-8[8:1]/7-4[8:1],84,3b/7b,,1b,1b,,
{8}7<4[8:1],,7,,1,2,,2,
{8}7-5[8:1]/1,1,1,1,6-8[8:1]/2,2,2,2,
{8}3h[8:3],4,5,6,6h[8:3],5,4,3,
{8}7,8,2,1,45,{16}2,3,4,8,7,6,
{8}5h[8:2],,1,,3,7,,7,
{8}3-1[8:1]/5,5,5,5,2-4[8:1]/6,6,6,6,
{8}7h[8:3],8,1,2,2h[8:3],1,8,7,
{8}3,4,6,5,81,{16}6,7,8,4,3,2,
{8}1h[8:2],,5,5,,2pp4[8:1],,2,
{8},6pp8[8:1],,6,,45,18,,
{8}4,17,,,5,28,,,
{8}26,2-8[8:1]/6-4[8:1],,2-4[8:1]/6-8[8:1],,2<7[8:2]/6>3[8:2],,2b/6b,
{8},,4h[8:2],,5,,6-8[8:1],6,
{8},2-4[8:1],2,,,8,7,6,
{8}1-5[8:1],,3-7[8:1],,8-4[8:1],,6-2[8:1],,
{8}1,1,1,1h[8:2],,7,6,5,
{8}4-1[8:1],,4-7[8:1],,4,,1,1,
{8},1,,8h[8:1],7h[8:1],6h[8:1],5h[8:1],4h[8:1],
{8}3,,2,,6,,6,7,
{8},18,,{16}4,5,3,6,2,7,1,8,1,8,
{8}2h[8:2],,5,6,7,6/3h[8:1],5,6/2h[8:1],
{8}7,6/3h[8:1],5,6/2h[8:4],7,6,5,6,
{8}7h[8:4]/4,3,2,3,4,6h[8:1]/3,4,3/7h[8:1],
{8}2,3/6h[8:1],4,3/7h[8:4],2,3,4,3,
{8}6,7,8,7,6,7/4h[8:1],8,7/3h[8:1],
{8}6,7/4h[8:1],8,7/3h[8:4],6,7,8,7,
{8}1<6[8:1],2,3,4,5>2[8:1],6,7,8,
{8},8b/3b,,1b/6b,,2b/7b,{16}1,8,1,8,
{8}1,,2h[8:1],6,3h[8:1],7,4h[8:1],8,
{8}7-4[8:1],4,7,2-5[8:1],5,2,8-4[8:1],5,
{8}8,1-5[8:1],4,1,7pp4[8:2],7,,,
{8}1b,,2b,,3b/5,,4b/6,,
{8}24,2,24,2,25,2,25,2,
{8}68,6,68,6,61,6,61,6,
{8}18,18,27,27,{16}3,6,4,5,3,6,4,5<4[16:9],
{8}4>5[8:4],,,,,,,,
{8}4h[8:2]/3>8[8:1],,3,,7,7,,7,
{8}1/2-6[8:1],3,2h[8:1],,5/6-2[8:1],7,6h[8:1],,
{8}8/7-2[8:1],6,7h[8:1],,4/3-6[8:1],2,3h[8:1],,
{8}15,26,37,4b>1[8:1]/8b<5[8:1],,,,,
{8}5h[8:2]/6<1[8:1],,6,,2,2,,2,
{8}8/7-3[8:1],6,7h[8:1],,4/3-7[8:1],2,3h[8:1],,
{8}1/2-7[8:1],3,2h[8:1],,5/6-3[8:1],7,6h[8:1],,
{8}84,73,62,5b/1b,,{16}2,3,4,6,7,8,
{8}1<6[8:1]/5>2[8:1],,15,,34,2,34,1,
{8}2,35,46,6,65,7,65,8,
{8}7,64,53,18,18,,6,5-1[8:1],
{8},5,4,3,,8,7,6,
{8}1-5[8:1],,1/7-3[8:1],,7/2-6[8:1],,2/4-8[8:1],,
{8}4/6-2[8:1],,62,,{8}45,,{16}4,3,2,1,
{8}8h[8:2],,4,,3,3,6,6,
{16}2,6,3,7,4,5,6,7,8,1,2,3,{8}4pp2[8:14]/8pp6[8:14],,
{1}4b/8b,
{1},
{8}1h[8:1]/5h[8:1],,3h[8:1]/7h[8:1],,3,4,5,6,
{8}6,5,4,3,,18,27,36,
{8},,36,,,4-8[8:1]/5-1[8:1],,45,
{8},{16}1,8,3,6,2,7,4,5,3,6,2,7,4,5,
{8}1,8,24,35,46,5/7-2[8:1],,7b,
{8}4,35,26,17,,8,{16}1,8,1,,
{4}2-4[8:1],24,2-5[8:1],25,
{4}6-8[8:1],68,6-1[8:1],61,
{4}1pp5[8:4],15,8,7,
{4}5pp1[8:4],51,4,3,
{8}6h[8:2],,5,5,,6-2[8:1]/3-5[8:1],,63,
{8},15,84,73,,4,3,2,
{16}15,8,7,6,58,7,6,5,74,6,5,4,{8}3,1,
{8},2,,7,{16}3,5,4,6,2,5,4,7,
{8}1h[8:3],,8,8,,2>5[8:1],,2,
{8},6,,6,{16}4,5,4,,{8}45,45,
{8}2-4[8:1]*-5[8:1],2,,,7-5[8:1]*-4[8:1],7,,,
{8}15,8-2[8:1]/4-6[8:1],,8-4[8:1]/4-8[8:1],,8qq3[8:24]/4qq7[8:24],,8b/4b,
{1},,,,,,,,,,
E
