&title=灼熱 Bonfire!
&artist=(パラレルver.)
&first=0
&des=sreCP
&lv_5=13+
&inote_5=(155){1},,
{8}1/8,,1h[4:1],,3,
{24},D4,A4,
{8},5,
{8}6/5,,6h[4:1],,8,
{24},D1,A1,
{8},2,
{8}2/1,,2h[4:1],,4,
{24},D5,A5,
{8},6,
{8}6/5,,6h[4:1],,8,
{24},D1,A1,
{8},2,
{16}17,,,,17,,,,28,,,28,,,28,,
{16}17,,,,17,,,,28,,,28,,,28,,
{16}17,,,,17,,,,28,,,28,,,28,,
{16}35,,,,35,,,,46,,,57,,,68,,
{16}82,,,,82,,,,71,,,71,,,71,,
{16}82,,,,82,,,,71,,,71,,,71,,
{16}82,,,,82,,,,71,,,71,,,71,,
{16},,4,4,5<8[8:1],,6,,4>1b[8:1]/5b,,,,4bw8b[8:1],,,,
{32}4b,B4,Chf[1:0],B8,,,,,
{4},2-7[8:1]/4h[4:1],,
{4}A1/D1/A8,C,Ch[4:1],A1/E1/A8,
{4}18,18,18,18,
{24}3x/8x,2x/7x,1x/6x,,,,1x/6x,2x/7x,3x/8x,,,,3x/8x,2x/7x,1x/6x,,,,1x/6x,2x/7x,3x/8x,,,,
{4}7-2[8:1]/5h[4:1],,2-7[8:1]/4h[4:1],,
{4}A1/D1/A8,C,Ch[4:1],A1/E1/A8,
{4}18,18,18,18,
{24}3x/8x,2x/7x,1x/6x,,,,1x/6x,2x/7x,3x/8x,,,,3x/8x,2x/7x,1x/6x,,,,1x/6x,2x/7x,3x/8x,,,,
{4}4h[16:6]/8h[2:1],,,,
{16}B8/B3,,E1,B1,B2f,,E3/A2,,B5/B6,,,,C,,,,
{8}8h[2:1]/3h[2:1],,,,,,,3,
{8}3h[8:5]/4h[8:6],,,,,,,,
{8}2h[2:1]/6h[2:1],,,,,,,4/5,
{8}4h[8:6]/5h[8:6],,,,,,,,
{8}7/4,6,2/5,3,7/4,6<1[4:1],,6,
{16}2,,,3,,,4/5,,,,8,,8h[4:1],,E8,,
{8}6,6,5,5,4,3>8[4:1],,8<5[4:1],
{16},,5>1[4:1],,,,1xV75[4:1],,7x,,5xV31[4:1],,3x,,B8,,
{16},,,,C,,,,B6/E6/B5,,,B3/E4/B4,,,B8/B1/8xh[1:1],,
{8},1,1,2,3,3,4,5pp7-3[8:6],
{8}5q2-6b[8:5],,,,,,,,
{8},8/6,7,6,5/2,3,4,5,
{8}5>1[4:1],,1<5[4:1],,
{16}5,,,C,,,8,,
{8}7/5,6/4,5/3,4>8[1:1]/2,
{16},,5,,6,,5-7[8:1],,
{8}5,,,4,4,,7,,
{16}2/6,,4,5,4,5,4,,5,4,5,,4,5,4,,
{16},,,,,,,,Chf[4:1],,,,,,,,
{24}8b/4h[16:2],7,,,,,8/4h[16:2],7,,,,,1b/5h[16:2],2,,,,,1/5h[16:2],2,,,,,
{24}8b/4h[16:2],7,,,,,8/4h[16:2],7,,,,,1b/5h[16:2],2,,,,,1/5h[16:2],2,,,,,
{24}8b/4h[16:2],7,,,,,8/4h[16:2],7,,,,,8/4h[16:2],7,,,,,8/4h[16:2],7,,,,,
{24}1/5h[16:2],2,,,,,1/5h[16:2],2,,,,,1/5h[16:2],2,,,,,1/5h[16:2],2,,,,,
{8}5-7[8:1],,4-2[8:1],,5-8[8:1],,4-1[8:1],,
{8},,B8,,B1,,B8,,
{8}5-7[8:1],,4-2[8:1],,5-8[8:1],,4-1[8:1],,
{8},,B8,,B1,,B8,,
{24}8b/4h[16:2],7,6,,,,8/4h[16:2],7,6,,,,8b/4h[16:2],7,6,,,,8/4h[16:2],7,6,,,,
{24}1b/5h[16:2],2,3,,,,1/5h[16:2],2,3,,,,1b/5h[16:2],2,3,,,,1/5h[16:2],2,3,,,,
{24}8b/4h[16:2],7,6,,,,8/4h[16:2],7,6,,,,1b/5h[16:2],2,3,,,,1/5h[16:2],2,3,,,,
{24}8b/4h[16:2],7,6,,,,8/4h[16:2],7,6,,,,1b/5h[16:2],2,3,,,,1/5h[16:2],2,3,,,,
{8}5-7[8:1],5,4-2[8:1],4,5-8[8:1],5,4-1[8:1],4,
{8},E8,B8,E2,B1,E8,B8,B1/C,
{8}5-7[8:1],5,4-2[8:1],4,5-1[8:1],5,4-8[8:1],4,
{8},7,7,6,5,4,3,3,
{32}1b<5[2:1],2-7-5[32:15],3,4,5,,,,,,,,,,,,,,,,,,,,,,,,,,,,
{8}1/3,2,8/6,7<2[2:1],,1,8,8,
{8}1,8,,1h[4:1],,8,,4-2[8:1]/5,
{8},6,6,7,,,7-4[8:1]/8,,
{8}7bxqq4[1:1]/Cf,,,,1-3[8:1],,1,,
{8}1-7[8:1],,1,,1-4[8:1],,1,,
{16}8,2,8,2,7,3,7,3,
{16},,,1,7,1,7,2,
{16}6,2,6,3,5,3,5,4,5,4,,,5b<8b[8:1],,,,
{64}5bqq1b[8:11],D6,A6,D7,A7,D8f,,,,,,,,,,,,,,,,,,,,,,,,,,,
,E
