&title=Brand New World
&artist=D-51
&first=0
&des=TruffleShroom
&demo_seek=48.6
&demo_len=27
&lv_5=13
&des_5=TruffleShroom
&inote_5=
(160){16},,,,,,,3,,2/1,,3h[8:3],,4h[4:1],,,,,,6,
,8/7,,5,,6/1,,2h[8:3],,5h[4:1],,,,,,6,
,3/4,,5,,7/3,,1h[8:3],,7h[4:1],,,,,7/1,
4,,7/1,,,,,{8}8x/1x,{4}6x/3x,
{8}8x/1x,7x/2x,{16}5bx/4bx,,,3,2,3,4,5,4,5,6,5,
6,7,6,5,6,5,4,5h[8:3],,,,,,4-8[0.375##1.0833],,,,,(90){8},
(160){16},E6,E7,E8,E2,E3,E4,E5,E6,E7,E8,E2,
E3,E4,E5,E6,E7,E8,,,,,,,{4}8b,
{16},,,,,,,,,1h[4:1],,,,5h[4:1],,,,6,
7,6-2[0.6562##0.1875],,4,,1,,,,,,,,5h[8:1],
,6h[8:1],,7h[8:1],,,,7q2[4:1],,,,,,,,8,
7,5,,3,,,,3-1[16:5],{2}7-5[0.2812##0.5625],
{16},,,,,,,,,2,,,,2xv5[0.1875##0.1875],,,,5x<8[0.1875##0.0938],
,8x>4[0.1875##0.0938],,4x-8[0.2812##0.0938],,8x<5[0.2812##0.2812],,,,4,,,,4/2w6[1.125##0.1875],
3,6h[4:1],,5,,,,7,,,,,,,,2h[8:1],
,,,5/4h[8:1],,5,,5-1[4:1],,5x,,5x,,,,,,,,,,3,
,,,3>7[0.2812##0.1875],,,,7<3[0.2812##0.1875],,,,3>7[0.2812##0.1875],
,,,7<3[0.2812##0.1875],,,,3>7[0.2812##0.1875],,,,,,7x,
,8/6,,4h[4:1],,5-2[0.5625##0.1875],,,,,,,,,,4,
,4,,5/3,,7/4,,6,,5,,4,,,7>2[8:1],2>4[0.4688##0.2812],
,4q5[0.5625##0.375],,5<8[0.75##0.375],,,,,,,,,,,,,,,,4/2,
,,,3,,4/2,,3,,5,,7,
,8s4b[16:9]/1s5b[16:9],,,,,,,,,,,,,,,,,,,,6,
5,4,3,7,8,1,2,5,6,7,
8,4,3,2,1,7h[8:3]/3h[8:3],,,,,,5h[8:3],,,,,,7/3,
,,,,,E4,,E8,,E6,,E2,,E7,
,E3,,C,,5h[8:3]/1h[8:3],,,,,,7h[8:3],,,,,,8/6,
,,,,,B5,,B8,,B1,,B4,,B6,
,B7,,B2,,1-4[8:1],,,,,,6-3[16:3],,,,,,5-2[16:3],
,,,,,2,,,,,,4x/6x,,,,6/4,
,,,Ch[2:1],,,,,,,,,,,,,,8w4b[0.75##0.0938],
,7h[4:1],,1h[8:1],,,,8x,,,,,,,,,,,,,,3h[8:3],
,4h[4:1],,,,,,6/5,
,7h[2:1],,,,,,2h[8:3],,6,,,,4/1,
,2,,4,,,,,,6/3,,5h[4:1]/4h[4:1],,,,,,8/1,
,6,,,,,,3/7h[8:3],,5,,,,3,
,5,,4/6,,,,1,,2,,3,,,,6h[8:1],
,7h[8:1],,,,,,7,,,,4,3,2,,,,,,4,
,4q2[8:1],,,,4,,,,3>8[8:1]/4<7[8:1],,,,3/4,
,,,2z6[16:3]/1v6[16:3],,2/1,,,,,,,,,,,,,,,,,,6-2[0.6562##0.0938],
,2-6[0.6562##0.0938],,,,5,
,4,,3,,,,,,8-4[0.6562##0.0938],,4-8[0.6562##0.0938],,,,7,
,6,,5,,,,,,1>2[16:1],2>3[16:1],3<8[16:3],,,,1,
,1,,1,,,,,,6-2[8:1],,2V85[8:1],,,,4x,
,1x,,5x,,,,5h[4:1],4h[16:3],,,7/3,,,,5,
1h[16:5],4,,7,,2,,1pp5[4:1],,,,,,,,,,,,4-8[0.4688##0.1875],
,8V24[0.6562##0.1875],,,,4V68[0.6562##0.1875],,,,3h[4:1],,,,,,,,5/2,
,5/2,,,,1,,1,,,,1>5[8:1],
,,,5<1[8:1],,,,1>5[8:1],,,,5<1[8:1],,,,1>5[8:1],
,,,5<1[8:1],,,,,,,,2h[4:1],,3h[8:1],
,4h[2:1],,,,5,,5,,5,,6,,3/2,,4/5,
,6/7,,8/1,,6b,5,4,,1b,2,3,,8b,7,6,
5,4,3,2,{4}1,{16},5h[8:3],,7h[4:1],,,,,,3/1>4[0.1875##0.1875],
,1,,,,,,3h[8:3],,6h[4:1],,,,,,8/5<2[0.1875##0.1875],
,5,,,,,,1h[8:3],,5h[4:1],,,,2V84[4:1],
,4>2[0.5625##0.1875],,2-6[0.5625##0.2812],,,,,,7,,8xh[8:3],,,,6x,
,5x,,6x,,,,2h[4:1],8h[16:3],,,,,,,4,
,2,,2/3,2h[16:3],,,3h[4:1],,,,8h[2:1],,,,,,,,7,
,6h[4:1]/4h[4:1],,,,8/1,,,,5h[4:1]/2h[4:1],,,,,,6h[2:1],
,1V75[0.5625##0.4688],,1,,,,,,,,,,,,,,,,,,4h[8:3],
,6h[4:1],,,,5,
,4,,5/6,,,,,,2h[8:3],,3,,,,4,
,5/4,,7/5,,,,,,5<6[16:1],6<7[16:1],7>4[16:3],,,,4,
,2h[8:1],,,,,,,,3,,8h[8:3],,,,5h[8:1],
,3/1,,5/2,,,,3h[8:1],,4h[8:1],,5h[2:1],,,,6,
7,8,,1,,2>5[0.4688##0.2812],,2,,,,,,,,,,,,3,
,3p5[8:1]/7p1[8:1],,,,3/7,,,,4h[4:1],,,,,,,,5,
,5,,,,,,5<4b[0.6562##2.0625],,,,4q5b[0.2812##2.0625],
{1},{4},,{16},,,3/2,
,,,,,4,
,5,,7/8,,5,,4,,6/2,,6,
,3,,4/8,,7b,6,5,,1b,2,3,,8b,7,6,
5,4,3,2,1,Cf,{1},,,,,,,,,,,,{16},,,(300),
E
