&title=UNDEAD
&artist=YOASOBI
&first=0
&des=reflectW
&lv_5=12+
&inote_5=(288)
{1},
{4}6b-8[8:1]/3b-1[8:1],,,1h[4:1],
{8}7,5,6,4h[4:1],,8,,,
{4}7b^5[8:1]/3b^1[8:1],,,5h[4:1],
{8}4,6,5,7h[4:1],,3,,,
{4}6bv1[16:4]/4bv1[16:4],,,2h[4:1],
{8}5,4,6,3h[4:1],,8h[16:6],,,
{8}1,,4^1[4:1],,4,,8^5[4:1],,
{8}8,,4h[4:1],,5,2b,,,
{8}5h[4:1],,3,,4h[4:1],,6,5,
{8}7,,1>5[4:1],,8,8,,,
{8}7h[4:1],,1,,2h[4:1],,8,,
{8}7,1,7<3[4:1],,2,2,,,
{8}1h[4:1],,6h[4:1],,3,4,,25,
{8},3h[8:3]/4h[8:3],,,,,5h[4:1]/6h[4:1],,
{8},,28,28,,76,,23,
{8},4b>6[16:5],,,5b-2[32:6]*-8[32:6],,,,
{8},,1h[4:1],,6,,4h[4:1],,
{8}6,,4,5-1[16:3],,56,,,
{8}8,,8h[4:1],,3,,5h[4:1],,
{8}3,,5,4-8[16:3],,43,,,
{8}3,,3h[4:1],,7,,1h[4:1],,
{8}7,,1,8-4[16:3],,87,,,
{8}65,,6,,34,,3,,
{8}28,,1h[8:1],,1h[8:1],,1h[8:1],,
{8}1h[8:1],,6h[4:1],,4h[4:1],,8h[4:1],,
{8}2h[4:1],,4,3,,25,,,
{8}17,,6,5,6,,3,4,
{8}3,4,2,5,2,5,1,8,
{8}1,8,{12}2,3,4,5,6,7,2,3,4,
{12}5,6,7,2,3,4,5,6,7,{12}2,3,4,5pp3[8:6]*-1[8:2],6,7,,,,,,,,,,
{4},28,7,6,
{4}5,3h[4:2]/4,,1h[4:2],
{4},8h[4:2],,6h[4:2],
{4},5h[4:2],,8h[4:2],
{4},1h[4:2],,7h[4:2],
{8},,2q3[4:2],,,,7p6[4:2],,
,,1s5[8:3],,,,,,
6,,3,4,2h[8:1]/5h[8:1],,,7h[8:1]/4h[8:1],
,,6h[8:1]/1h[8:1],,,3h[8:1]/8h[8:1],,,
{8}4>1[4:1],,5,,6,,1h[4:1],,
{8}7,,2,8,,7,1,,
{8}5<8[4:1],,4,,3,,8h[4:1],,
{8}2,,6,4,,3,5,,
{8}1h[4:1],,2h[4:1],,3h[4:1],,4h[4:1],,
{8}5h[4:1],,6h[4:1],,7h[4:1],,8h[4:1],,
{8}1-4[4:1],,1-6[4:1],,1^4[4:1],,1^6[4:1],,
{8}1-5[4:1],,1,,,,{16}7h[4:1]/3h[4:1],,,,
{8},,{24}1h[4:1]/5h[4:1],,,{8},,,6^1[4:1],,
{8}2,,3,,4,5,4,,
{8}6^1[4:1],,4,,3,,2,1,
{8}2,,8h[4:1],,3,4,2,,
{8}1^4[4:1],,1,,5^8[4:1],,5,,
{8}1^4[4:1],,1,,5^8[4:1],,5,,
{8}1^4[4:1],,1,,6<5[4:3],,6,,
{8}3,,3h[4:2],,,,5h[4:2],,
{8},,1^4[4:1],,,,6,5,
{8}8^5[4:1],,3,,3,4,1pp4[4:2],,
{8}8,,7,,6,,3,4,
{8},6,5,,1,8,2h[4:1]/7,,
{8}8<5[4:1],,8,,4>1[4:1],,4,,
{8}7<4[4:1],,7,,3>8[4:1],,3,,
{8}6w2[4:1],,6,,,,4-2[8:1],,
{8}5-7[8:1],,1-3[8:1],,8-6[8:1],,4-2[8:1],,
{8}5-7[8:1],,1,,,,8qq4[1:1],,
{8},,,,,,3qq4[1:1],,
,,,,,,6pp5[1:1],,
,,,,,,1,,
,,3-8[4:1],,,,7-4[4:1],,
,,2-5[4:1],,,,6pp1[4:3],,
,,,,,,,,
,,1,8,1,8,2,7,
2-6[8:1],7,2b,,,,8p4[4:1],,
,,1,,3,2h[8:3]/4,,,
1-5[4:1],,71,,,,6h[8:3]/4,,
,5,6,4-8[4:1],,43,,,
1-5[4:1],,8,,7-4[4:1],,1,,
2-6[4:1],,1,,8-5[4:1],,2,,
3-7[4:1],,2,,1-6[4:1],,3,,
4-8[4:1],,,,6b,,,,
1h[4:1],,4h[4:1],,2h[4:1],,5h[4:1],,
3h[4:1],,6h[4:1],,4-2[8:1]*-6[8:1],4,,,
8h[4:1],,5h[4:1],,7h[4:1],,4h[4:1],,
6h[4:1],,3h[4:1],,5-7[8:1]*-3[8:1],5,,,
1^4[4:1],,8,,6pp2[4:2],5,,2,
,3h[8:3],,,8,,17,,
6,5,7pp4[4:2],,,,3h[4:2],,
,,5,,,8,{32}1w5[4:1],,,,,,,,
{8}1b,,,,6-1[4:1],,3,,
2v5[4:1],,7,,6,7h[8:3]/4,,,
2^5[4:1],,5^8[4:1],,8^3[4:1],,3^6[4:1],,
6,,8h[4:1],,1^4[4:1],1,,,
8p4[4:1],,1,,2^5[4:1],,8,,
7p3[4:1],,8,,1^4[4:1],,7,,
6p2[4:1],,7,,8^3[4:1],,6,,
5-1[4:1],,4,,,,2h[4:1]/7,,
8,1,8,,3-8[4:1],,6,,
7v4[4:1],,2,,3,2h[8:3]/5,,,
7^4[4:1],,4^1[4:1],,1^6[4:1],,6^3[4:1],,
3,,1h[4:1],,8^5[4:1],8,,,
{8}2h[4:1],,8-5[16:2]*p4[16:2],,8,,1-4[8:1]/2-5[8:1],,
{8}21,,6pp2[4:2]*qq2[4:2],6,,,,,
{8},,7,,1,2-6[8:1]/8-4[8:1],,28,
{8},5b<3[16:5],,,4b-7[32:6]*-1[32:6],,,,
