&title=花月夜
&artist=Yonder Voice
&first=0.14
&des_1=史,慎开。
&des_2=史,慎开。
&des_3=史,慎开。
&des_4=史,慎开。
&des_5=史,慎开。
&des_6=史,慎开。
&des_7=史,慎开。
&lv_7=交
&des=史,慎开。
&inote_7=(145){4},,,,,1>1[1:1],,,,,,,
{16},,7,,7h[1:2],,,,,,,,,,,,
{16}6,,,,6,,,,,,5,,,,,,
{16}5,,,,4h[1:2],,,,,,3,,,,,,
{16}3,,,,2,,,,,,2,,,,,,
{16}1,,,,8h[1:2],,,,,,7,,,,,,
{16}7,,,,6,,,,,,6,,,,,,
{16}5,,,,5,,3,4,3,,3,5,3,
{16},3,6,3,,,,3b,,3,7,3bx<1[4:1],,3,8,3bxp8[1:4],,,,
{16},,,,,,,,,,,,,,,,
{16},,,,,,,,,,,,,,,,
{16},,,,,,,,,,,,,,,,
{16},,,,,,,,,,,,,,,6pp4[2:1],
{16},,,,,,,,,,,3qq5[2:1],,,,,
{16},,,,,,,,,,,8<4q8[4:5],,,,,
{16},,,,,,,,,,,,,,,,
{16},,,,3,,,,,,,,1,,,,
{16}1<6[4:1],,,,1,,,,,,,,1,,,,
{16}1>4[4:1],,,,1,,,,,,,,1,,1,,
{16}1pp6[2:1],,,,1,,,,,,8,,8,,,,
{16}8pp3[2:1],,,,8,,,,,,,,2,,2,,
{16}2qq5[2:1],,8,,8,,,,,,,,7,,7,,
{16}7qq4[2:1],,1,,1,,,,,,,,2,,1,,
{16}8,,,,,,,,,,,8,1,8,,,8,1,8,,8,1,8,,8,1,8,,8,1,8,,8,1,8,,,3,,,,,
{16}2,6,2,6,
{16}2,6,2,6,2,6,2,6,2,8,2,8,2,8,2,8,2,8,
{16}4,8,4,8,4,8,4,8,4,2,4,2,4,2,4,2,4,5,
{16}4,5,4,5,3,5,3,5,3,5,3,5,3,5,3,
{16}5,4,3,4,3,4,3,2,3,2,3,2,3,2,3,
{16}4,5,6,5,6,5,6,7,6,7,6,7,6,7,6,7,6,
{16}1,8,1,8,1,8,1,6,1,6,1,6,1,6,1,
{16}8,2,8,2,8,2,1,6,1,6,1,6,1,6,1,6,
{16}8,2,8,2,8,2,1,6,1,6,1,6,1,6,1,6,
{16}4,5,3,6,4,5,3,6,4,5,3,6,4,5,3,6,
{16}4,5,3,6,4,5,3,6,4,5,3,6,4,5,3,6,
{16}5,3,5,3,5,3,4,7,4,7,4,7,4,7,4,7,
{16}6,4,5,3,6,4,5,3,6,4,5,3,6,4,5,3,
{16}6,5,6,4,6,3,6,2,6,1,6,8,6,7,6,6,
{16}3,4,3,5,3,6,3,7,3,8,3,1,3,2,3,3,
{16}4,5,4,3,4,5,6,4,5,3,4,5,4,6,5,4,
{16}5,4,5,6,5,4,3,5,4,6,5,4,5,3,4,5,
{16}4,6,4,6,3,7,3,7,2,8,2,8,2,8,2,8,
{16}1,7,1,7,1,7,1,7,8,8,8,8,8,8,8,8,
{16}8,8,8,8,8,8,8,8,8,8,8,8,8,8,8,8,
{16}8-4[1:14],,,,,,,,,,,,,,,,
{4},,,,{4},,,,{4},,,,{4},,,,{4},,,,{4},,,,{4},,,,{4},,,,{4},,,,{4},,,,{4},,,,{4},,,,{4},,,,
{16},,,,,,,,,,4,5,3,6,4,5,
{16}3,6,4,5,3,6,4,6,4,6,4,6,4,6,4,6,
{16}3,5,4,6,3,5,4,6,3,5,4,6,3,5,4,6,
{16}3,5,3,5,3,5,3,5,4,6,4,6,4,6,4,6,
{16}3,5,4,6,3,5,4,6,3,5,4,6,3,5,4,6,
{16}3,4,3,8,3,4,3,7,3,4,3,6,3,4,3,5,
{16}3,5,3,5,3,5,3,5,4,6,4,6,4,6,4,6,
{16}3,7,3,7,3,7,3,7,5,7,5,7,5,7,5,7,
{16}6,7,6,7,7,7,7,7,7,7,7,7,7,7,7,7,
{16}7,1,7,1,7,1,7,1,8,1,8,1,8,1,8,1,
{16}8,1,7,2,8,1,7,2,8,1,7,2,8,1,7,2,
{16}7,1,7,1,7,1,7,1,8,2,8,2,8,2,8,2,
{16}8,1,7,2,8,1,7,2,8,1,7,2,8,1,7,2,
{16}7,1,7,1,7,1,7,1,7,1,7,1,7,1,7,1,
{16}7,3,7,3,7,3,7,3,7,1,7,1,7,1,7,1,
{16}8,2,8,2,8,2,8,2,8,1,8,1,8,1,8,1,
{16}8,8,8,8,8,8,8,8,8,8,8,8,8,8,8,8,
{16}3,7,2,6,3,7,2,6,3,7,2,6,3,7,2,6,
{16}1,5,8,4,1,5,8,4,1,5,
{32}8,4,8,4,8,4,8,4,8,4,8,4,8,4,8,4,8,4,8,4,8,4,8,4,8,4,8,4,D1/A1/D2/A2/D3/A3/D4/A4/D5/A5/D6/A6/D7/A7/D8/A8/E1/B1/E2/B2/E3/B3/E4/B4/E5/B5/E6/B6/E7/B7/E8/B8/Cf,
E
