&title=拉面
&artist=打打
&first=0
&des=22222
&lv_5=原神
&des_5=22222
&inote_5=
(200){4},{16},,,,,,,,E4,B4,B5,E6,
{1}Cf,
E2,
E4,
E6,
E8,
E1,
Ch[2:1],
{2}1/6xh[2:1],{32}E2,E3,E4,E5,E6,E7,E8,E1,{4}C,
{24}7b/3bh[4:1],6,{12}5,{24},,,,,4bh[4:1]/8bv5[48:5],7,6,,,,{8}8x,{4}1>8[16:13],
{2}1b/5h[4:1],7xh[4:1],
{24}2b/6bh[4:1],3,{12}4,{24},,,,,5bh[4:1]/1bv4[48:5],2,3,,,,{8}1x,{4}8<1[4:3],
{2}8b/4h[4:1],2xh[4:1],
{4}7x/3b,6/2,8/4,7/3,
{8}2b/5,3,7/4,6,2/5,3,7/4,6,
5/1b,2,4/8,7,{16}2x,6,3,5,{24}4b,3,2,{96}1x,,,8,,,{32}7,6,
{8}5,{24}E8,E2,B7,{16}B2,B6,B3,E6,{12}E4,E1,C,E5,,,{4}1x/8x-4[8:1],
{24}7x/8x,6x,5x,{4},{96}8bx/1,,,7x,,,{32}6x,5x,{4}1x-5[8:1],
{24}2x/1x,3x,{12}4x,{16},,,{64},{192},{32}1bx/8,2x,3x,4x,{4}8x-4[8:1],{8}7x/8x,6,
5/3,2,1/8,7,{16}6x,2x,5x,1x,{32}4V68V24<8[16:11],3,2,1,8,7,6,5,
{2}4x,{16}A1,A2,A3,A4,{4}Cf,
{24}3/7,2/6,{12}1/5,{48},,,,,,,,,,{16}4,5,{8}3,8v5[8:1],,8/4-2<1[8:1]*v7[8:1],
,4,,8,7/1,4,{4}2/6-4v1[8:3],
{8}6/3,2h[8:1],,3,3xv2-8[4:1],7-4b[8:1],3,7,
,1/6,{4}4V68[6:1]/3-1[8:1],{2}4/3pp5p8[4:1],
{24}7,6,{12}5,{48},,,,{16}2,4,{8}3,7<6v4[16:3],3-8[8:1],7,3v1>5b[8:3],
,5h[8:1],,5,6,7,8qq5[8:3],1,
{24}2x,3,{12}4,,{4}1pp4[8:3],{24}7,6,{12}5x,,{4}8qq5[8:3],
{24}2,3,{12}4x,,{4}1xv2-4[4:1],{24}7,6,{12}5x,,{4}Cf,
{24}6/2,7/3,{12}8/4,{24},,{8}3,{16}5,4,{8}6,1v4[8:1],,1/5-7>8[8:1]*v2[8:1],
,5,,1,2/8,5,{4}7/3-5v8[8:3],
{8}3/6,7h[8:1],,6,6xv7-1[4:1],2-5b[8:1],6,2,
,8/3,{4}5V31[6:1]/6-8[8:1],5/6qq4q1[4:1],6,
{24}2,3,{12}4,{48},,,,{16}8/1x,7,{8}6/5x,{16},,1/8x,2,{4}3/4x,
{16}7x/4,6,{8}5x/8,{16},,2x/5,3,{8}4x/1,7/2,{16}4,5,4,5,
1,8,2,7,3,6,4,5,B1,B7,B3,B5,B2,B8,B4,B6,
{32}B1,B2,B3,B4,B5,B6,B7,B8,E1,E2,E3,E4,E5,E6,E7,E8,1x,2,3,4,5,6,7,8,1,2,3,4,5,6,7,8,
{8}1x,{16}6,5,{8}6,8x,{16}4,3,{8}4,1x,{16}6,5,
{8}6,8x,{16}4,3,{8}4,{16}1,8,3,5,1,8,4,6,
2,4,3,5,{8}1h[8:1],{16}7,5,6,4,{8}8h[8:1],{16}2,4,3,5,
{8}1h[8:1],{16}7,5,6,4,{8}8h[8:1],{16}1,7,3,5,2,8,4,6,
2,7,4,5,3x,2,1/8,7,{4}6/5h[4:1],{16}6x,7,8/1,2,
{4}3/4h[4:1],{16}3x,2,1/8,7,{4}6/5h[4:1],{8}6-3[8:1],6,
{4}6/2b,{8}2,5b/1-4[8:1],,1b/7-2[8:1],,7b/3-6[8:1],
,3b/8,{4}8,{16}3,4,2,5,1,6,8,7,
{4}C,7/5,{6}2/4,7/6,2/1,
{8}8/7,6/5,3,{24}5,,2,,4,{48},,{16}3,5,2,4,{24}3,4,3,
{4}C,{32}8b/1b,7/2,6/3,5/4,,,,,{16}2,6,4,5,3,7,4,5,
{12}1h[12:1],6,4,7h[12:1],2,5,{8}3,6,{4}2h[8:1]/4q5[16:3],
1x,{16}1,2,7,6,2,3,8,7,{8}6/5p4[16:3],5x,
{16},,,,8,7,2,3,7,6,1,2,{8}3/4q5[16:3],4x,
{16},,,,8,6,1,7,2,8,3,1,{8}5p4[16:3],5,
{16},,,,1,3,8,2,7,1,6,8,{4}5,
{8}2/6,3,4/8,3,2/6,3,4/8,3,
7/3,6,5/1,6,7/3,6,5/1,6,
{16}2,5,3,5,2,5,3,5,4,6,4,7,4,6,4,7,
{24}3,2,1,8,7,6,3,2,1,8,7,6,{32}E3,E2,E1,E8,E7,E6,E5,E4,{4}Cf/E3,
{32}6b/1h[16:1],5,{16}4,{32},,6b/1h[16:1],5,{8}4,{32}7b/2h[16:1],6,{16}5,1,8,{8}1,{32}3b/8xh[16:1],4,{16}5,{32},,2b/7h[16:1],3,
{8}4,{32}1b/6h[16:1],2,{16}3,{32},,1b/6h[16:1],2,{8}3,{24}7,8,1,2,3,4,{4}5/1,
{32}8b/4h[16:1],7,{16}6,{32},,8b/4h[16:1],7,{8}6,{32}8b/4,7,{16}6,4,5,{8}4,{32}1bx/5xh[16:1],2,{16}3,{32},,1b/5h[16:1],2,
{8}3,{32}1b/5h[16:1],2,{16}3,{32},,1b/5h[16:1],2,{8}3,{24}5,4,3,2,1,8,7,6,{6}5/4,
{32}2b/8h[16:1],3,{16}4,{32},,7b/1h[16:1],6,{8}5,{32}2b/8h[16:1],3,{16}4,1,8x,{8}1,{32}2b/8h[16:1],3,{16}4,{32},,7b/1h[16:1],6,
{8}5,{32}2b/8h[16:1],3,{16}4,{32},,7b/1h[16:1],6,{8}5,{24}2,3,4,5,6,7,8,1/5,{48},,,,,,,,2b,
3x,,,,,8b,7x,,,,,{16}1h[16:3],{48},,,,,,7b,6x,,,,,2b,3x,,,,6b,5x,,,2b,1x,,{16}8x,,C,
{48},,,,,,,,{6}D7/D6/A6f,D3/D4/A3f,Cf,{12},{4}1xq5b[8:1],
1/8V62[8:3],{8}8/3,2V84b[4:1],,3,3,2-5-7-1[8:3],
,3,4x,4x-8-4b[4:1],,2b,{4}2x,
7x/1V37[8:3],{8}1/6,7V15b[4:1],,6,6,7-4-2-8[8:3],
,6,5x,5x-1-5b[4:1],,7b,{4}7b,
{8}8b/4b,7,1b/5b,2,7b/5b,6,2b/4b,3,
7/5,6/5,2/4,3/4,1/6,6/1,8/3,3/8,
{16}2,4,2,4,3,5,3,5,4,6,4,6,{32}5b,6b,7b,8bz4>1s5b[32:29],1bs5<8z4b[8:7],2b,3b,4b,
{1}Cf,
D5f/A5/A4,
6/Ch[2:1],
7/3,
2/Ch[2:1],
7h[2:1]/5h[2:1],
2h[2:1]/1h[2:1],
{2}4/6h[2:1],2h[2:1],
Cfh[2:1],{48}B7/B6/B2/B3,{96}E7,E3,{4},{16},,,{64},{192},{4}1>5[2:1],
{8}7,6,{2}5<1[2:1],
{4}1>5[2:1],{8}7,6,5,6,{4}7,
7<3[2:1],{8}1,2,{2}3>7[2:1],
{4}7<3[2:1],{8}1,2,3,2,{4}1,
2>6[2:1],{8}8,7,{2}6<2[2:1],
{4}2>6[2:1],{8}8,7,6,7,{4}8,
8<4[2:1],{8}2,3,{2}4p7[8:3],
2h[4:1],{8}8b/2b,5b/4b,,,{4}7b/1b,
{8}6/4,5/3,4/2,1bx,7b,{16}6/4,5/3,
{8}4x/2,1bx,7b,{16}6/4,5/3,{8}4x/2,1bx,8b,{16}7/5,6/4,
{8}5x/3,2/8,1/7,5/3,4/2,7/8,4/6,{16}5/3,2/6,
{8}7/1,5/3,{16}1bs5b[4:1]`8bz4[4:1],2/7,{8}6/3,{2}8b/1b,
{8}6/4x,2,5x/3,7,6/4,2/8,3/5,7/1,
{16}4,6,2,8,3,5,1,7,{32}2x,3,4,5,6,7,8,1,2x,3,4,5,6,7,8,1,
{1}2x/Cfh[1:1],
{8}2b,,,6h[8:3]/4h[8:1],,3x,2-4b[8:1],1x,
2x/6,{16}7V53[4:1],5,{8}6,2/7,2-6-8[4:1],1,2/4,4h[8:1],
,1x/5h[8:1],2,6/3,7/4,8,5/2-4b[8:1],3,
2/6,{16}7V53[4:1],5,{8}6,7/2,2-6-8-4b[8:3],1,4x,4x>7b[4:1],
,5,{4}5h[8:1],{8}6,7x/1x,3x/4x,6x/5x,
8x/2x,{16}6-8[8:1],5,{8}7,3/6,3,{16}2,4,{8}3-5[8:1],7,
3v8[8:1]/7-4[8:1],8,{4}3b/7b-1[8:1],{8}7x/2-6-4b[4:1],3,2x/8,8,
{16}7bh[8:1],,,6b/1b,,,{8}4x/3x,{16}2bh[8:1]/8bh[8:1],,,4b/6b,,,{8}5b,
{16}7,8x,{8}7,6/1,5/2,4/3,{16}6,5,{8}7-5[8:1],8,
7x/3,{16}2V46b[4:1],4,{8}3,7/2,7-3-1b[4:1],8,7/5,5h[8:1],
,8/4h[8:1],7,3/6,2/5,1,4/7-5[8:1],6,
7/3,{16}2V46b[4:1],4,{8}3,2/7,7-3-1-5b[8:3],8,5,5b<2b[4:1],
,4b,{4}4bh[8:1],{8}4,5,6/3>8[16:3],4/5,
{4}3/1h[16:7],{16}7x,6,5,4,3/8,2/7,1/6<1[4:1],5,{8}4,6x/8xh[16:7],
{16},,,,2x,3,4,5,6/1,7/2,3x>8[8:1]/8x<5[8:1],4,{8}5,3x/8x,
{24},,,,,,{12}2b,4b,2b,{24}6,5x,{12}6x,4,7b,{24},,,,{8}4bx/5bx,
4bx/5bx,{16}3,6,2,7,{32}1b,2,3,4,5,6,7,8,1x,2,3,4,5,6,7,8,
{1}Ch[2:3]/1bs5[8:33],
{8},,,,,,7x,6bh[8:3],
,,,,{2}4bh[4:1],
2bh[4:1]/8bh[4:1],{4}1w5b[8:1],1b/Cf,
{48}2bx,3x,{24}4x,{48},,{16}7,6,{8}7,{48}1bx,2x,{12}3x,{16}6,5,{8}6,{48}8bx,1x,{24}2x,{48},,{16}5,4,
{8}5,{16}1,3,2,6,5,7,{8}3,2/8,{48}7bx,6x,{24}5x,{48},,{16}2,3,
{8}2,{48}8bx,7x,{12}6x,{48}3,,,4,,,{8}3,{48}1bx,8x,{24}7x,{48},,{16}4,5,{8}4,1/3,
7/2,8/6,5/4,6/3,2b/8b,{16}6,4,{8}5,7b/1b,
{16}3,5,{8}4,2b/8b,{16}6,4,{8}5,{16}3,4,1,7,5,6,
3,4,2,7,{8}1b,{16}6-1b[8:1],5,7,4,{8}6b,{16}3-8b[8:1],4,2,5,
{8}3b,{16}7,5,{8}6xh[8:1],{16}2,4,{8}3xh[8:1],{16}7,4,6,3,{8}5xh[8:1],
{16}2,4,3,7,{8}1bh[8:1],{16}7,5,6,2,{8}8bh[8:1],{24}2x,3,4,5/6,7,8,
3,2,1,8/7,6,5,2,3,4,6/5,7,8,{32}1,2,3,4,5/1,6/2,7/3,8/4,5,6,7,8,5/1,6/2,7/3,8/4,
{1}5bh[1:2]/1h[1:2],
,{64}B3,
B7,{192},,{24}Ch[24:23],{1},{4},,,{16},,{24},{1}B7h[8:31]/B6h[8:31],
{4}B2h[8:23]/B3h[8:23],,,,
{1}Cfh[1:2],
E
