&title=線香花火
&artist=kamome sano
&first=0.075
&des=ユユユユしき
&lv_5=14
&des_5=ユユユユしき
&inote_5=
(188){4}E7h[8:9],{8},Ch[4:3],,,{4}E3h[8:3],
{8},,,,,,,,E1h[8:9],
,,Ch[4:3],,,{4}E5h[8:3],
{8},,,,,,,,E8h[8:9],
,,Ch[4:3],,,{4}E4h[8:3],
{8},,,,,,,,E2h[8:9],
,,Ch[4:3],,,{4}E6h[8:3],
{8},,,,,Cf,,,7xh[4:1],
,,8xh[4:1],,,{4}1xh[4:1],
{8},2xh[4:1],,,,,,,3h[4:1],
,,4h[4:1],,,{4}5h[4:1],
{8},6h[4:1],,,{2}C,
{8}1h[4:1],,,2h[4:1],,,{4}3h[4:1],
{8},4h[4:1],,,,,,,8h[4:1],
,,7h[4:1],,,{4}6h[4:1],
{8},5h[4:1],,,4,5b,{4}4-8[8:1],
4,{8}4,3h[8:3],,,,4h[4:1],
,,{4}5h[2:3],{8},,,,E8,
,,E2,,,E4,7h[8:3],
,,,6h[8:3],,,,3h[8:7],
E5,,,E6,,,{4}E7,
1-3[8:1],1,2-4[8:1],2,
3-5[8:1],3,4-6[8:1],4,
8-6[8:1],8,7-5[4:1],5qq2[4:5],
{8}E7,,,E8,,,{4}E1,
{8},E2,,,,,8-5[8:1],8,
{4}8b,4h[4:1],3h[4:1],2h[4:1],
1h[4:1],8h[4:1],7h[4:1],6h[4:1],
5h[4:1],{8}4,3,,,3,4h[8:3],
,,6,5,,,E8/E4,E2/E6,
,,,7bxh[4:1],,,{4}8bh[4:1],
{8},1bh[4:1],,,2bh[4:1],Cf,,,7xh[4:1],
,,6xh[4:1],,,{4}5xh[4:1],
{8},4xh[4:1],,,,,,,8h[4:1],
,,1h[4:1],,,{4}2h[4:1],
{8},3h[4:1],,,,,,,5h[4:1],
,,4h[4:1],,,{4}5h[4:1],
{8},4h[4:1],,,,,,,2h[4:1],
,,3h[4:1],,,{4}2h[4:1],
{8},3h[4:1],,,{2}B8/B1/E1f,
{8}7xh[4:1]/Ch[4:1],,,1h[4:1]/Ch[4:1],,,{4}6h[4:1]/Ch[4:1],
{8},8h[4:1]/Ch[4:1],,,,,,,B8/E1/B1/Ch[4:1],
,,B2/B3/E3/Ch[4:1],,,{4}B5/E5/B4/Ch[4:1],
{8},B6/E7/B7/Ch[4:1],,,,,,,5V71[8:3],
,,1-3-5[4:3],,,{4}3-5-7[4:3],
{8},,,,,,,,7-5-3[8:3],
,,3-1-7[4:3],,,{4}1-7-5[4:3],
,,,,3b-7[8:1],
{8}5-1[8:1],5,,,4-8[8:1],4,
{1}4-7[8:1]*-1[8:1],
{8}E7,,,E3,,,{4}E5,
8v5[4:1],{8}5q1[4:1],5,,,2-5[8:1],2,
{4}2/1,,,5<8[4:1],
8>3[4:1],3<6[4:1],6<1[4:1],1v2[4:1],
2>5[4:1],5v6[4:1],6<1[4:1],1>4[4:1],
4<8[4:1],8>4[4:1],4<8[4:1],8w4[8:1],
{8},,,,,,,,,,,,,,4,
7h[8:3],
,,{4}2-5[8:1],2/1,7-4[8:1],
7/8,1-5[8:1],8/1,8-4[8:1],
8b/1b,{8}2pp4[4:1],2,,,7qq5[4:1],7,
,,4x-1[8:1],4,,,5-8[8:1],5,
A1,,,E3,,,{4}A4,
{8},E7/B6/B7,,,{4}B2/B3/E3,1-4[8:1],
1v6[4:1],{8}6<1>4[2:1],5,,,7<1[2:1],7,
{2}7,C,
{8}Cf/E7/B6/B7/B2/B3/E3,,,B8/E1/B1/B5/E5/B4,,,{4}C,
1-4[8:1],{8}8-5[8:1],8,,,8-4[8:1],4-7[8:1],
{4}7-5[8:1],,,7-3[8:1],
8-4[8:1],1-5[8:1],2-6[8:1],3-7[8:1],
4-8[8:1],5-1[8:1],6-2[8:1],7-3b[8:1],
8-4b[8:1],1-5b[8:1],2-6b[8:1],3-7b[8:1],
{1}3b,
{8},,,,,,8-3[8:1],3-8[8:1],
,,{4}2x-6[8:1],{2}6-2[8:1],
{4}8-4[4:1],4>1[4:1],{2}1w5[8:1],
{4}7xh[4:1],{8}3,3h[4:1],,,5,5h[4:1],
,,4,4h[4:1],,,6,6h[4:1],
,,{4}E2,B6,E4,
E8,E3,8b<6[8:1],8bpp4b[1:1],
8b,{8}8,8-5[8:1],,8-4[8:1],,8,
,,,,E7,E8,E1/3xpp7b[1:1],E2,
{4}3b,{8}3,3>8[8:1],,3-7[8:1],,3,
,,,,E7,E6,D5/2bxqq6b[1:1],E4,
{4}2b,{8}2,2>5[8:1],,2-6[8:1],,2,
,,,,E5,E6,E7/1bxpp5b[1:1],E8,
{4}1b,{8}1,1-6[8:1],,1-5[8:1],,1,
,,,,,,2-5[8:1],5-8[8:1],
8pp4b[4:3],,,7-5[8:1],,7v4[8:1],{24},,,,,,,,,,,,{12}C,
,C,{4}C,{8}7-4[8:1],4-1[8:1],
1qq5b[4:3],,,2-4[8:1],,2v5[8:1],,,,,,,6-3[8:1],
3-6[8:1],{4}6pp2[1:1],
{8},,5,5-3[8:1],,5v2[8:1],,,,,{4}1>4[4:1],
4<7[4:1],7>2[4:1],
2>6[4:1],6<2[4:1],{2}2w6[8:1],
{4},E7,C,E3,
{8}2b-5[8:1],5-2[8:1],2-7[8:1],7-2[8:1],,6b-2[8:1],,6b,
,,,,{4}C,{8}3b,3b,
7b-2[8:1],2-7[8:1],7-4[8:1],4-7[8:1],,3b-7[8:1],,3b,
,,,,B6,B5,B4,B3,
1b-4[8:1],4-1[8:1],1-6[8:1],6-1[8:1],,5b-1[8:1],,5b,
,,,,B7,B8,B1,B2,
8b-5[8:1],5-8[8:1],8-3[8:1],3-8[8:1],,4b-8[8:1],,4b,
,,,,,,8/1,7/2,
6b-3[8:1],3-6[8:1],6-1[8:1],1-6[8:1],,2b-6[8:1],,2b,
{24},,,,,,{12}C,,C,C,C,C,C,{24},,,,{8}3b-6[8:1],
6-3[8:1],3-8[8:1],8-3[8:1],,7b-3[8:1],,7b,
,,,,5/4,6/3,7/2,8/1,
{4}8v5[8:1]/1v4[8:1],8/1,{8},5b/4b,,6bh[8:3],
,,{4}7bh[4:1],8bh[4:1],1bh[4:1],
2bh[4:1],{8}3bh[8:1],4bh[4:1],,5b,6b,7bh[8:9],
,,,,,3-7[8:1],3,3,
,,{4}8/1,3/2,5/4,
6/7,1/2,3/4,5/6,
7/8,2/3,6/5,1/2,
7/6,4/3,8/2,8/2,
5/4,6/7,5/4,3/2,
8/1,7/6,8/1,2/3,
8-4[8:1],1-3[8:1],8-6[8:1],1-5[8:1],
8-4[8:1],1-3[8:1],{2}8-6[8:1],
{4}8>3[4:1],3<6[4:1],6<1[4:1],1q5[4:1],
5q1[4:1],1q5[4:1],5q1[4:1],1>4[4:1],
4<7[4:1],7>2[4:1],2>6[4:1],6-8-2[4:1],
2-4-6[4:1],6-8-2[4:1],2-4-6[4:1],6<1[4:1],
1>4[4:1],4<7[4:1],7>2[4:1],2-4<6[4:1],
6-8>2[4:1],2>4-6[4:1],6<8-2[4:1],2>5[4:1],
5<8[4:1],8>3[4:1],3<6[4:1],6p8[4:1],
8>3[4:1],3<6[4:1],6p8[4:1],8b,
{1}Cf,
{4},,,,6h[4:1],
5h[4:1],4h[4:1],3h[4:1],
4h[4:1],5h[4:1],{2}6h[4:1],
{4}3h[4:1],4h[4:1],5h[4:1],6h[4:1],
5h[4:1],4h[4:1],{2}3h[4:1],
{4}2h[4:1],1h[4:1],8h[4:1],7h[4:1],
8h[4:1],1h[4:1],{2}2h[4:1],
{4}7h[4:1],8h[4:1],1h[4:1],2h[4:1],
3h[4:1],4h[4:1],5h[4:1],6h[4:1],
{8}7b,,,,,C,,,{4}C,
C,{8},C,8,8,
C,C,{4}7/C,{8}6,C,{4}5,
4/C,3,{8}2,C,{4}1/C,
7-4[8:1],{8}2-5[8:1],2,,,8-4[8:1],8,
,,1-5[8:1],1,,,8qq5[2:3]/1pp4[2:3],8/1,
,,,,,,,,,,,,,,2qq6qq2b[2:15],
2,
{1}2b,
{2},2-6[8:1],
,,{1}6<1[8:1],
1v6[8:1],
{2},6qq5[4:1],
{4},,,6b-2[8:3],
{1}6b,
{8}E6h[8:9],,,E5h[4:3],,,{4}E4h[8:3],
{8},,,,,,,,E8h[8:9],
,,E1h[4:3],,,{4}E2h[8:3],
{8},,,,,,,,E8h[8:9],
,,E7h[4:3],,,{4}E6h[8:3],
{8},,,,,,,,E2h[8:9],
,,E3h[4:3],,,{4}E4h[8:3],
,,{2}Cf,
{8}Cfh[8:9],,,E7h[4:3],,,{4}E3h[8:3],
,,1bx>3[8:1],1bqq5b[1:1],
1b,{8}1,1-4[8:1],,1-5[8:1],,1,
,,,,E3,E2,E1/6qq2b[1:1],E8,
{4}6b,{8}6,6<1[8:1],,6-2[8:1],,6,
,,,,E3,E4,D5/7bpp3b[1:1],E6,
{4}7b,{8}7,7<4[8:1],,7-3[8:1],,7,
,,,,E5,E4,E3/8bqq4b[1:1],E2,
{4}8b,{8}8,8-3[8:1],,8-4[8:1],,8,
,,,,,,7-4[8:1],4-1[8:1],
1qq5b[4:3],,,2-4[8:1],,2v5[8:1],{24},,,,,,,,,,,,{12}C,
,C,{4}C,{8}2-5[8:1],5-8[8:1],
8pp4b[4:3],,,7-5[8:1],,7v4[8:1],,,,,,,3-6[8:1],
6-3[8:1],{4}3qq7[1:1],
{8},,4,4-6[8:1],,4v7[8:1],,,,,{4}8<5[4:1],
5>2[4:1],2<7[4:1],
7<3[4:1],3>7[4:1],{2}7w3[8:1],
{4},E3,C,E7,
{8}7b-4[8:1],4-7[8:1],7-2[8:1],2-7[8:1],,3b-7[8:1],,3b,
,,,,{4}C,{8}6b,6b,
2b-7[8:1],7-2[8:1],2-5[8:1],5-2[8:1],,6b-2[8:1],,6b,
,,,,B3,B4,B5,B6,
8b-5[8:1],5-8[8:1],8-3[8:1],3-8[8:1],,4b-8[8:1],,4b,
,,,,B2,B1,B8,B7,
1b-4[8:1],4-1[8:1],1-6[8:1],6-1[8:1],,5b-1[8:1],,5b,
,,,,,,1/8,2/7,
3b-6[8:1],6-3[8:1],3-8[8:1],8-3[8:1],,7b-3[8:1],,7b,
{24},,,,,,{12}C,,C,C,C,C,C,{24},,,,{8}6b-3[8:1],
3-6[8:1],6-1[8:1],1-6[8:1],,2b-6[8:1],,2b,
,,,,4/5,3/6,2/7,1/8,
{4}1v4[8:1]/8v5[8:1],1/8,{8},4b/5b,,3bh[8:3],
,,{4}2bh[4:1],1bh[4:1],8bh[4:1],
7bh[4:1],{8}6bh[8:1],5bh[4:1],,4b,3b,2bh[8:9],
,,,,,6-2[8:1],6,6,
,,7h[4:1],8,,7/8,6/1,5/2,
,,,,1/2,8/3,7/4,5/6-2[8:1],
,5-1[8:1],,5-8[8:1],,5,4,3,
,,,,1-3[8:1],8-4[8:1],1w5[8:1],8,
1,,,,,B7,,E2,
,,6h[8:5],5,4,3,2,1-4[8:1],
,1<6[8:1],,,,2-5[8:1],2-6[8:1],2-7[8:1],
,,A6,A5,,5bx,4b,3b,
{4}2b/Cf,{8}7x,8x-4[8:1],,3,2,1-5[8:1],
,,,,5/4,6/3,7/2,8/1,
8b/1b,,,,,8-5[8:1],1v4[8:1],8,
{2}1,{8}6/8,7/1,8/2,1/3,
,,,,,6/3,5/4,6/3,
,,,,,7/2,1/8,7/2-5[8:1],
,2-7[8:1],,2-6[8:1],,2b,,,{4}7bh[4:1],
8bh[4:1],1bh[4:1],2bh[4:1],
{8}7b-5[8:1],7-4[8:1],,,,E4,E3,E2,
,,,,1-3[8:1],1-5[8:1],{4}1-4[8:1],
{8},B6,,E5,,B7,B8,B1,
,,,,3b,2b,1bw5[8:1],8b,
,,,,,7-3b[8:1],,7b,
,,,,8/1,7/2,6/3,5/4,
,,,,,6b/3b,7b/2b,6b/3b,
,,7b/2b,6b/3b,,7h[8:1],8h[8:1],1h[8:1],
2h[4:1],,,8,,8-5[8:1],7,1-4[8:1],
,,,,8/1v4[8:1],2,1/8v5[8:1],7,
8b/1b,,,,,E8,E1,E2,
,,,,,E8/E2,E7/E3,E6/E4,
,,,,,D1,C,E5,
,,,,8-4[8:1],8-5[8:1],{4}8-3[8:1],
{8},,A4,A5,A6,A7,A8,A1f,
,,{4}8x/1x-5[8:1],1/8-3[8:1],8/1-6[8:1],
1/8-4[8:1],8,{8},,2-5[8:1],2,
,,,,,,,,8-5[8:1],
8,2-6[8:1],2,4-1[8:1],4,,,,,,,,,,,7-3[8:1],
2-6[8:1],7,2,,,8z4[8:1]/1s5[8:1],8/1,
,,,,,,,,{4}7-5-1[4:1],
3V15[4:1],{8},,,,,E8/E4,
,,{4}E7/E3,Cf,
8x-5[8:1],2-5[8:1],8-4[8:1],1-5[8:1],
,,,,7-4[8:1],
2v5[8:1],6v1[8:1],3-8[8:1],
,,,,8-6[8:1],
1-5[8:1],2-4[8:1],8-6[8:1],
,,,,1-3[8:1],
8-4[8:1],7-5[8:1],1-3[8:1],
{8},,,,,Cf,,,{1}2qq6[4:5],
,5qq1[4:5],
,8qq4[4:5],
,7pp3[4:5],
{2},E5f,
{8}1-3-5[4:3],,,3-5-7[4:3],,,{4}A8,
{8},C,,,,,,,8-6-4[4:3],
,,6-4-2[4:3],,,{4}A1,
{8},C,,,,,,,8-2-4[4:3],
,,2-4-6[4:3],,,{4}A8,
{8},C,,,,,,,1-7-5[4:3],
,,7-5-3[4:3],,,{4}A1,
{8},C,,,,Cf,,,{1}8b/1b,
E
