&title=Chaotic Ørder
&artist=TAG vs Kai
&first=0
&des=Hsy
&lv_5=14+
&inote_5=(165)
{4},,,,
{4}4>5[1:2],,,7,6,,,3,4>5[4:7],,,6,5,,,1,
{4}8<1[4:7],,,2,3,,,7,
{16}8b,,,2b/7b,,,,,,,,,4,5,4,5,3b/6b,,,3b/6b,,,2b/7b,,,,
{32}1,8,1,8,2/7,,,,,,,,
{16}4,,3-1[8:1]/5,,2,4,3,,6,,7-5[8:1],8,,8,7,,
{16}4,,3>1[8:1]/5,,2,4,3,,6,,7<5[8:1],8,,8,7,,
{16}1,,2-4[8:1]*-4[8:1]/8,,3,1,2,,7,,6-8[8:1]*-8[8:1],5,,5,6,,
{16}1,,2/1,,2,8bh[8:1],,1bh[16:3],,,7b,2b,6b,3b,5b,4b,
{16}5,,6-8[8:1]/4,,7,5,6,,3,,2-4[8:1],1,,1,2,,
{16}5,,6<8[8:1]/4,,7,5,6,,3,,2>4[8:1],1,,1,2,,
{16}8,,7-5[8:1]*-5[8:1]/1,,6,8,7,,2,,3-1[8:1]*-1[8:1],4,,4,3,,
{16}5,,6/5,,6,4bh[8:1],,5bh[16:3],,,3b,6b,2b,7b,1b,8b,
{16}1,5,2,6,3,7,4,8,5,1,4,8,3,7,2,6,
{24}1,2,3,7,6,5,2,3,4,8,7,6,1,2,3,4,5,6,7/2,3,4,5,6,7,
{8}8-5[8:1]/Cf,,8/2V46[4:1],,2,1,,1-3[8:1],,1-4[8:1],8-6[8:1],1-5[8:1],8-4[8:1],1-6[8:1],8,1,
{8}8-4[8:1],,8/3V17[4:1],,3/4,5-8[8:1],,5-1[8:1],,5/4-8[8:1],3,5-1[8:1]/4,6,5/4,3,2,
{16}1,1,6,6,3,3,7,7,2,2,5,5,4,4,8,8,3,3,5,5,1,1,6,6,4,4,8,8,2,2,7,7,
{24}4,5,4,5,4,5,3,6,3,6,3,6,2,7,2,7,2,7,1,8,1,8,1,8,
{32}2bx/7bx,,,,2,,1b/3b,,,,7,,6b/8b,,,,,,,,4,5,4,5,3bx<3b[2:1]/6bx,2x,1x,8x,7x,6x,5x,4x,
{16}3bx,,,,,,,,,,8,1,7<4[8:1],2,8,1,7,,,2h[16:3],,,3h[4:1],,,,2,1,8,7,6,5,
{24}4x,8x,4x,8x,4x,8x,3x,7x,3x,7x,3x,7x,2x,6x,2x,6x,2x,6x,1x,5x,1x,5x,1x,5x,
{16}2,4,3,7,5,6,1h[4:1],,,,7,8,1<1b[2:1],2,3,4,5h[2:1]/1b,,,,,,,,
{16},,2,8,1>4[8:1],7,2,8,1,,,5hx[8:1]/8hx[8:1],,,7hx[2:1]/6hx[8:1],,,,6,5,4,3,2,1,
{24}8x,7x,6x,2x,3x,4x,7x,6x,5x,1x,2x,3x,8x,7x,6x,5x,4x,3x,2x/7x,6x,5x,4x,3x,2x,
{16}1,3,2,8,6,7,Cf,,,,
{16}7,6,5q8b[2:1],4,3,2,1h[4:1],,,,,,,,1h[16:3],,,2h[16:3],,,3h[16:14],,,,,,,,,,2,1,8,7,6p3b[2:1],5,4,3,
{16}2h[4:1]/6,,,,,,,,2h[16:3],,,1h[16:3],,,8h[8:5],,,,,,,,,,
{32}1,2,3,4,5,6,7,8,1q4b[2:1],2,3,4,5,6,7,8,
{16}1h[4:1],,,,,,,,5h[16:3],,,6h[16:3],,,7h[8:5],,,,,,,,,,4h[16:3],,,3h[16:3],,,2,,
{24}1,8,1,8,1,8,2,7,2,7,2,7,1,2,3,7,6,5,2,3,4,8,7,6,
{32}5h[8:7]/2,3,4,,6,7,8,1,2,3,4,,6,7,8,1,2,3,4,,6,7,8,1,2,3,4,,6,7,8,1,
{16}2/6-2[8:1],6,6h[2:1],,,,,,,,2,8,2,6,2,4,2-6[8:1],2,2h[2:1],,,,,,,,
{16}7,1,7,3,7,5,7-3[8:1],7,7h[2:1],,,,,,,,3,5,3,7,3,1,3-7[8:1],3,3,,,,
{16}1,1,1,1,1,,1,2/8,3/7,4/6,
{16}5h[8:1],,,4h[8:1]/6h[8:1],,,3/7,,
{32}8x/4x,1,2,3,4x/8x,5,6,7,8xv5[8:1]/4x-1[8:1],1,2,3,4x/8x,5/1,6/2,7/3,
{16}8x/4x,,,2xh[8:1]/6hx[8:1],,,3x/7x,,
{32}4/8x,3/7x,2/6x,1/5x,8x,7x,6x,5x,4w8[8:1]/8x,3/7x,2/6x,1/5x,8x,7x,6x,5x,
{16}4x,,,,,,1/8,2/7,3/6,,2/7,3/6,4/5,,3/6,2/7,1h[8:1]/8h[8:1],,,2h[8:1]/7h[8:1],,,3/6,,
{12}4x/5x,3,2,1x-5[16:1]/8x,7,6,
{1}1b/5b>5-1b[2:7],,Ch[2:3],,
{8}2-5[8:1]/6-8[8:1],,2V41[4:1]/6,,2,6-4[8:1],,6-1[8:1],,6-3[8:1],,6/2-5[8:1],7-3[8:1],2-6[8:1],7-2[8:1],2,7-3[8:1],,7V15[4:1]/3,,7,2-6[8:1],,2/7V58[4:1],,7/1,2,,
{16}3V15[8:1]/6V84[8:1],4/5,,4/5,3/6,,Cf,,
{8}4x-1[8:1]/5x,,4/6V82[4:1],,6,5,,5-7[8:1],,5-8[8:1],4-2[8:1],5-1[8:1],4-8[8:1],5-2[8:1],4,5,
{8}4-8[8:1],,4/7V53[4:1],,7/8,1-4[8:1],,1-5[8:1],,1/8-4[8:1],7,1-5[8:1]/8,2,1/8,7,6,
{48}1bx,2x,3x,
{16}5,4,6,3,7,2,8,1,4,3,5,2,6,1,7,
{48}8bx,1x,2x,
{16}4,3,5,2,6,1,7,8,6,5,7,4,8,3,1,
{48}2bx,3x,4x,
{16}5x,4x,6,3,7,2,8,
{48}1bx,8x,7x,
{16}4x,3x,5,2,6,1,7,
{48}8b,1x,2x,3x,,,,,,,,,
{48}8b,7x,6x,5x,,,,,,,,,
{48}8bx,1x,2x,3x,,,
{48}8bx,7x,6x,5x,,,
{48}8bx,1x,2x,3x,,,
{48}8bx,7x,6x,5x,,,
{16}Chf[8:7],,,,,,,,B1/B2,,,B7/B8,,,,,
{32}1/5,2,3,4,5,6,7,8,1,2,3,4,5,6,7,8,5/1,4,3,2,1,8,7,6,5,4,3,2,1,8,7,6,
{16}1-5[8:1]/5,,2/6V83[4:1],,1/5,,6,4,,,,,,4-8[8:1]/5,,,,4/3V58[4:1],,3V15[4:1],3,,,,,,,,,,,,
{16}4-7[8:1],,,4-1[8:1],,,4,,5-2[8:1],,,5-8[8:1],,,5,,
{16}1bw5[8:1],,,,1b,,,,4,3,2,1,5,6,7,8,
{16}1b,2,1,2,1,3,1,3,1b,4,1,4b,1,5,1b,5,1b,6,1,6,1,7,1,7,1b,8,1,8b,1,1,1b,1,
{24}1bx,2,3,4/1x,8,7,6/1x,2,3,4/1x,8,7,6/2x,3,4,5x/8,7,6,5x/2,3,4,5x/8,7,6,
{16}5x/1b-4[16:1]*-6[16:1],,,1bxw5[8:1],,,1bx,,,,,,,,
{16}7,6,1h[16:1]/5bh[4:1],,1h[16:1],,1h[16:1],,1h[16:1]/5,4,
{16}1h[16:1]/3b,,1h[16:1],3b,1h[16:1],,1h[16:1]/4b,,
{16}1h[16:1]/6b,,1h[16:1],7b,1h[16:1],,1h[16:1]/6b-2[8:1],,
{16}1h[16:1]/6b,,1h[16:1],,1h[16:1],,1h[16:1]/2x,3x,
{16}1h[16:1]/4b,,1h[16:1],5b,1h[16:1],,1h[16:1]/6b,,
{16}1h[16:1]/8b,,1h[16:1],7b,1h[16:1],,1h[16:1]/5b>2[8:1],,
{16}1h[16:1]/5b,,1h[16:1],,1h[16:1],,1h[16:1]/8b,7b,
{16}1h[16:1]/6bw2[8:1],,,,6b,,,,
{24}1,5,1,5,1,5,2,6,2,6,2,6,3,7,3,7,3,7,4,8,4,8,4,8,
{16}1x/5x,,,3/7,,,1V35[8:1]/5V71[8:1],,
{2}1-5[8:1]/5-1[8:1],
{16}4/3,,1,,5/6,,8,,4/5,,3/6,,1,8,1,8,2/7,,,1-5[8:1]/8-4[8:1],,,1/8,,,,,,4w8[8:1]/5w1[8:1],,,,B1/B2/B3/B4/B5/B6/B7/B8/Cf,,,,,,,,
{16}3,4,2,2,5,3,6,4,7,3,3,6,2,2,5,1,1,4,8,5,1,6,3,3,8,7,6,1,8,7,2,1,8,3,2,1,4,3,2,1,
{24}4x,8x,4x,8x,4x,8x,3x,7x,3x,7x,3x,7x,2x,3x,4x,8x,7x,6x,1x,2x,3x,7x,6x,5x,4xw8b[8:1]/8x,,,,,,,,,,,,
{16}6,5,7,7,3,4,2,2,
{24}8,1,2,3,4,5,6,7,8,1,2,3,4h[8:1],,,
{32}8,7,6,5,4,3,2,1,8,7,6,5,4/8,1,2,3,4,5,6,7,8,1,2,3,8,7,6,5,1,2,3,4,5,6,7,8,1,2,3,4,7,8,1,2,
{16}4,5,3,3,7,6,8,8,2,1,3,3,6,5,7,7,3/6,3/6,3/6,3/6,,,2/7,2/7,2/7,2/7,,,1/8,1/8,1-5[4:3]/8,1/8,,,Ch[4:3]
,,,,,,,,,,,,,,
{24}2,5,4,7,1,6,3,8,2,5,4,7,1,6,3,8,1,8,2,4,3,5,4,6,5,7,1,8,2,7,1,8,2,4,3,5,4,6,5,7,1,8,2,7,3,6,4,5,
{2}Cf,1w5b[2:3]/8w4b[2:3],,,
{24},,,,,,,,,2,1,8,7b,,,,E
