&title=まっすぐ→→→ストリーム
&artist=日向千夏
&first=0
&des=FUNCOVOVOVOVOV
&lv_7=狂
&inote_1=
&inote_7=(184)
{16},,,,,,,,,,,,,,,,,,,,,,,,,,,,2b/7b,,,,
3b,4,3,4,3,4,3,4,3,4,3,4,3,4,3,4,3b,5,3,5,3,5,3,5,3,5,3,5,3,5,3,5,
4b,5,4,5,4,5,4,5,4,5,4,5,4,5,4,5,4b,6,4,6,4,6,4,6,4,6,4,6,4,6,4,6,
2b,1,2,1,2,1,2,1,2,8,2,8,2,8,2,8,1b,8,1,8,1,8,1,8,1,7,1,7,1,7,1,7,
8b,6,8,6,8,6,8,6,1,7,1,7,1,7,1,7,2b,8,2,8,2,8,2,8,3,1,2,8,1,7,8,6,
{8}7b,7,7/6,6,6/8,8,8/5,5,51,1,14,4,42,2,23,3,13,1,17,7b,75,5b,53,3b,34,
4,45,5,56,6,67,7,7b/2b,2,28,8,82,2,24,4,46,6,68,8,82,2,27,7,78,8,81,1b,12,2b,
23,3b,36,6,65,5,5-8[8:1]/4-1[8:1],4,4b/5b,,
{16}3b,4,3,4,3,4,3,4,3,4,3,4,3,4,3,4,2,5,2,5,2,5,2,5,2,5,2,5,2,5,2,5,
3,6,3,6,3,6,8b,6,3,6,1b,6,3,6,2b,6,1,7,1,7,1,7,1,7,1,7,1,7,1,7,1,7,
2b,7,8,7,8,7,8,7,8,7,8,7,8,7,8,7,5,6,5,6,5,6,5,6,5,6,5,6,5,6,5,6,
4,5,4,5,4,5,1b,5,4,5,2b,5,4,5,3b,5,2,6,2,6,2,6,2,6,2,6,2,6,2,6,2,6,
4b,5,4,5,3b,6,3,6,3,6,3,6,3,6,3,6,4b,7,4,7,4,7,5b,8,5,8,5,8,5,8,5,8,
1b,8,1,8,2b,7,2,7,2,7,2,7,2,7,2,7,3b,8,3,8,3,8,4b,1,4,1,4,1,4,1,4,1,
4b,5,4,5,4,5,4,5,3b,4,3,4,3,4,3,4,2b,1,2,1,3b,8,3,8,4b,7,4,7,5b,6,5,6,
3b,5,4,5,4,5,4
,5,4,5,4,5,4,5,4,5,2b,8,4b,6,1b,7,3b,5,3b,7,2b,6,1b,5,8b,4,
{2}7hbx[4:3],6^3[8:1],{4}7h[4:1],3-7[8:1]
,{32}3x/6x-2[16:1],7x,8x,1x,2x,3x,4x,5x,6bx/8bx,Cf,,,,,,,
{16}1b,8,1,8,1,8,1,8,1,8,1,8,1,8,1,8,1,8,1,8,1,8,1,8,1,8,1,8,3b,8,1,8,1,8,1,8,1,8,1,8,1,8,1,8,1,8,1,8,1,8,1,8,1,8,1,8,1,8,2b,8,2b,8,1,8,1,8,1,8,1,8,1,8,1,8,1,8,1,8,1,8,1,8,1,8,
1,8,1,8,1,8,1,8,3b,8,1,8,1,8,1,8,1,8,1,8,1,8,1,8,1,8,1,8,4b,8,1,8,3b,8,1,8,2b,8,1,8,
1,8,1,8,
4b,5,4,5,4,5,4,5,4,5,4,5,4,5,4,5,4,5,4,5,4,5,4,5,4,5,4,5,2b,5,4,5,4,5,4,5,4,5,
4,5,4,5,4,5,4,5,4,5,4,5,4,5,4,5,4,5,4,5,3b,5,3b,5,4,5,4,5,4,5,4,5,4,5,4,5,4,5,4,5,
4,5,4,5,4,5,4,5,4,5,4,5,4,5,2b,5,4,5,4,5,4,5,4,5,4,5,4,5,4,5,4,5,
4,5,1b,5,4,5,2b,5,4,5,3b,5,4,5,8bw4[2:1]*-4b[2:1],,,,{1},
{16}
4b,6,4,6,3,6,3,6,4,6,4,6,3,6,4,6,4,6,4,6,2,6,2,6,3,6,3,6,2,6,3,6,3,6,3,6,
1,6,1,6,2,6,2,6,1,6,2,6,2,6,2,6,8,6,8,6,1,6,1,6,8,6,1,6,2b,6,5,6,5,6,
8,7,8,7,1,8,1,8,2,1,2,1,2,4,3,5,4,6,5,7,8b,7,5,7,5,7,
4,5,4,5,4,5,2,4,2,4,3,5,3,5,4,6,4,6,5,7,4,6,3,5,2,4,
1b,4,2,4,2,4,8b,6,8,6,8,6,1,5,1,5,2,6,2,6,3,7,3,7,3,1,2,8,1,7,8,6,5b,6,4,6,4,6,
4b,5,3,6,2,7,4b,5,3,6,2,7,1,8,2b,1,3,8,4,7,5,6,5b,6,8,7,5,6,8b,7,5,6,5b-8-2[4:1]/7b-3[4:1],,,,,,,,,,,,
{48}1b/8b,27,63,45,,,,,,,,,
{16}1b,8,1,8,2b,1,2,1,3b,2,3,2,
4b,1,4,1,3b,8,3,8,2b,7,2,7,1b,6,1,6,
3b,7,3,7,2b,6,2,6,1b,5,1,5,8b,4,8,4,
1b,3,1,3,2b,4,2,4,3b,5,3,5,4b,6,4,6,3b,7,2,8,
1b,1,1,1,1,1,1,1,1,1,1,1,1,1,1,1,1b,1,1,1,1,1,1,1,1,1,1,1,1,1,1,1,
1b,1,1,1,1,1,1,1,1b,1,1,1,1,1,1,1,1b,1,1,1,1b,1,1,1,1b-5[8:1],1,1,1,1b,Cf,
,,
{8}3b/7,3,35,3,3,37,35,3,36,3,35,34,3,34,35,3,
48,4,46,4,4,48,46,4,47,4,64,45,4,45,46,4,
2b/6b,6,46,6,6,62,64,6,63,6,64,65,6,65,64,6,
51,5,53,5,5,51,53,5,52,5,53,54,5,54,53,5,
5/1,1,1/4b,1,1,1,1/3b,1,1,1,1/2b,1,1,1,1/8b,1,
1/8,8,8/5b,8,8,8,8/6b,8,8,8,8/7b,8,8,8,8/1b,8,
1b/8b,18,27,27,36,36,45,C,4b/5b,45,36,36,27,27,18,C,
{16}4b,8,3,7,2,6,1,5,2b,6,3,7,4,8,5,1,
6hbx[4:3],,,,2h[4:3],,,,,,,,,,,,6hx[4:1],,,,
2^1[32:1]*^8[16:1]*^7[32:3]*<6[8:1]*<5[32:5]*<4[16:3]*<3[32:7]*<2[4:1],,,,
{32}6x/2x-6b[16:1],5x,4x,3x,2x,1x,8x,7x,6bx,Cf,,,,,,,
{16}
4b,5,4,5,4,5,4,5,4,5,4,5,4,5,4,5,4,5,4,5,4,5,4,5,4,5,
4,5,2b,6,3,6,3,6,3,6,3,6,3,6,3,6,3,6,3,6,3,6,3,6,3,6,3,6,3,6,
3,6,1b,6,1b,6,2,7,2,7,2,7,2,7,2,7,2,7,2,7,2,7,2,7,2,7,2,7,2,7,2,7,2,7,2,7,
3b,8,1,8,1,8,1,8,1,8,1,8,1,8,1,8,1,8,1,8,
5b,8,1,8,5b,8,2,8,5b,8,3,8,3,6,2,7,
1b,8,1,8,1,8,1,8,1,8,1,8,1,8,1,8,1,8,1,8,1,8,1,8,1,8,1,8,
3b,7,2,7,2,7,2,7,2,7,2,7,2,7,2,7,2,7,2,7,2,7,2,7,2,7,2,7,2,7,4b,7,4b,7,
3,6,3,6,3,6,3,6,3,6,3,6,3,6,3,6,3,6,3,6,3,6,3,6,3,6,3,6,3,6,
2b,5,4,5,4,5,4,5,4,5,4,5,4,5,4,5,4,5,4,5,
2b,5,3,5,1b,5,2,5,8b,5,1,5,4bw8[2:1]*-8b[2:1],,,,
{1},
{16}1b,8,2,7,1,8,2,7,1,8,2,7,3,6,3,6,4b,5,3,6,4,5,3,6,4,5,3,6,2,7,2,7,
2b,1,3,8,2,1,3,8,2,1,3,8,4,7,4,7,8b,7,1,6,8,7,1,6,8,7,1,6,2,5,2,5,
1b,8,2,7,3,6,3,6,2,1,3,8,4,7,4,7,8b,7,1,6,2,5,2,5,1,8,2,7,3,6,3,6,
4b,5,3,6,2,7,2,7,3,4,2,5,1,6,1,6,5b,6,4,7,3,8,3,8,4,5,3,6,2,7,1,8,
4b,5,4,5,4,5,4,5,4,5,4,5,4,5,4,5,
3,4,3,4,3,4,3,4,3,4,3,4,3,4,3,4,
2,3,2,3,2,3,2,3,2,3,2,3,2,3,2,3,
2,6,2,6,2,6,2,6,5,6,4,5,3,4,8b,
