&title=Flashdance
&artist=litmus*
&first=-0.21
&lv_5=13+
&des_5=DANCE!!!
&inote_5=
(130){4},{24}Ch[4:3],B3,{4},,,{16},,{24},{16}8h[4:3],
,,3,,,{8}3,{16},3,,,{4}3,
{16}6h[4:3],,,1,,,{8}1,{16},1,,,{4}1,
{16}4h[4:3],,,5,,,{8}5,{16},5,,,{4}5,
{16}3h[4:3],,,8,,,{8}8,{16},8,,,{4}8,
{8}6/4,{16}3,4,{8}2,{16}6,4,,4,{8}5,
{4}8/7,{8}3/5,{16}6,5,{8}7,{16}3,5,,5,{8}4,
{4}1/2,{64}7bxh[4:1]/D1f,A1,D2,A2,D3,A3,D4,A4,{8}D5,{64},,,,,,,,2bxh[4:1]/D1f,A8,D8,A7,D7,A6,D6,A5,{4}D5,
{48}8bxw4b[4:3],7/1,6/2,5/3,{12}4,{1},{16},{48},{8}6/4,
4,4/6,{16}4,5,{8}3,{16}3,4,
{8}2,6/4,7/1,1,1/7,{16}1,8,{8}2,{16}2,1,
{8}3,6/4,{16}7,5,7,5,8,6,8,6,{32}1,2,3,4,5,6,7,8,
1,2,3,4,5,6,7,8,{4}1/Cfh[4:3],{8},,,,,,7/3,
{16}6,5,{8}6,{16}2-5[8:1],1,,1,{8}2,
7,{16}3,4,{8}3,{16}6,6,{8}4,{16}7,8,{8}7,{16}3,5,
,8,7,6,{8}2,{16}3,4,{8}3,{16}7-4[8:1],8,,8,{8}7,
2,{16}6,5,{8}6,{16}3,3,{8}5,{16}2,1,{8}2,{16}6,5,
{8}8b,8b,5/3,{16}6,5,{8}7,{16}1<6[8:1],8,,2,{8}1,
3,{16}4,4,{8}6,{16}3,3,{8}1,{16}7,8,{8}6,{16}3,4,
,7,6,5,{8}1,{16}3,4,{8}2,{16}8>3[8:1],1,,7,{8}8,
6,{16}5,5,3,4,3,{32}7,6,{16}5,{32}1,2,{16}3,6,6,4,4,7,
{4}Cf,{32}1x-7[8:1]*-6[8:1],2x,3x,4x,,,,,{4}1pp3[8:1],1/5v6<8[16:3],
{8}5,{16}3,3,,1,1,1,{8}8/2-5[8:1],6,{12}2/4-7[16:1],,4/8-3[16:1],
,8,{96},,,,,,,,{32}5x-3[8:1]*-2[8:1],6x,7x,8x,,,,,{4}5pp7[8:1],5/3>8[8:1],
{16}7/3,6,5,4,{8}1,{16}6,7/5,,2,{8}3/1,{12}7h[8:1]/6h[8:1],,7h[8:1]/6h[8:1],
,8/5,{96},,,,,,,,{32}8x-2[8:1]*-3[8:1],7x,6x,5x,,,,,{4}8qq6[8:1],8/4v3>1[16:3],
{8}4,{16}6,6,,8,8,8,{8}1/7-4[8:1],3,{12}7/5-2[24:1],,5/1-6[24:1],
,1,{96},,,,,,,,{32}4x-6[8:1]*-7[8:1],3x,2x,1x,,,,,{4}4qq2[8:1],4/6<1[8:1],
{16}2/6,3,4,5,8,8,7,7,6,6,5,5,4,4,3,3,
{4}Cf/E8/E1/E2/E5/B2,7<4[2:3],{2}C,
C,C,
{4}C,1>5[2:3],{2}C,
C,C,
{4}C,{8}6/5,7,{16}3,4,,2/1,,,{8}6/5,
5/4,4/3,1/2,3,{16}7,8,,6/5,,,{8}2/1,
1/8,7/8,5/3,1/8,{16}6,4,,8/7,,,{8}1/2,
3/4,5/6,7/1,{16}3/6,3/6,,5/4,,7/2,,,{8}5/4,
{4}Cf,8/1h[8:1],{16}7/1h[8:1],7,,6,{4}1h[8:1],
{8}5/1h[8:1],6,7/1h[8:1],5,{16}6/1h[8:1],6,,7,{4}1h[8:1],
{8}6/3,7/4,{4}5/8h[8:1],{16}3/8h[8:1],3,,1,{4}8h[8:1],
{8}5/8h[8:1],3,1/8h[8:1],3,{16}2/8h[8:1],2,,1,{8}8h[8:1],5,
6/4,7/3,2/8,4/5,1/7,{16}6,5,{8}7,{16}7,8,
{8}6,4/3,5/6,2/8,4/3,{16}7,8,{8}6,{16}6,5,
{8}7,8/1,{16}3,6,4,5,2,7,4,5,{32}1,2,3,4,7,6,5,4,
2,3,4,5,8,7,6,5,{4}4/Cfh[4:3],,,B6/B5/B4/B3,
{16}2-5[8:1],4,3,4,{8}2,{16}6x,6,5-1[8:1],7,4,8,
{8}5,{16}7x,7,2-6[8:1],5,3,7,{8}2,8x,{16}5/1<6[8:1],4,3,2,
{8}1,{16}3x,3,5-1[0.4523##0.2308],4,6,3,{8}5,{16}2x,2,7-4[8:1],3,6,4,
{8}7,{16}2>5[8:1],1,,1,{8}2,6,{16}7<4[8:1],8,,8,{8}7,
3,{16}1,1,7<4[8:1],2,6,5,{8}7,{16}2x,2,1-5[8:1],3,7,5,
{8}1,{16}3x,3,4-7[8:1],2,5,8,{8}4,1x,{16}8/4>8[8:1],7,6,5,
{8}4,{16}6x,6,8-4[8:1],7,2,5,{8}8,{16}7x,7,5>2[8:1],6,3,8,
{8}5,{16}6,6,3,4,2,{32}7,6,{16}5,{32}2,3,{16}4,7,8,6,2,1,
{4}3/Cf,{16}8,4,8,2,7,3,5x,5,2,8,1,7,
8,6,4x,4,6,3,8,2,5,4,7x,7,2,1,4,6,
8,5,3x,3,7,1,5,4,8,3,6x,6,1,7,5,6,
3,8,2>5[8:1],1,,1,{8}2,6,{16}7<4[8:1],8,,8,{8}7,
3,{16}6,6,2,8,4,5,1,7,3x,3,5,4,7,8,
6,2,5x,5,1,7,5,6,3,8,2x,2,4,1,7,3,
5,8,6x,6,4,7,2,1,3,5,8x,8,6,3,1,5,
7,1,6x,6,2,4,3,{32}7,6,5,4,8,1,2,3,7,6,5,4,2,3,4,5,6,7,
{64}8b/B6f,C,B2,A2,,,,,,,,,,,,,{4}4h[8:1],4h[8:1],4h[8:1],
4h[8:1],4h[8:1],4h[8:1],4h[8:1],
4h[8:1],4h[8:1],4h[8:1],4h[8:1],
4h[8:1],4h[8:1],4h[8:1],4h[8:1],
{1}C,
E
