&title=香港究竟有多少区
&artist=巴西funk
&first=0.060
&des=!?区区?!
&wholebpm=130.000
&lv_7=区
&des_7=!?区区?!
&inote_7=(130)
{4}3x-7[4:1]/5x-1-7-5-3[8:5],,,,
{8}7x/8x,7x/8x,A1/E1/E8/A7/E7/E6/E5/A5/E4/A3/B7/B3/B1/C/B5,,1x/2x,1x/2x,A2/E2/E1/A8/E8/E7/E6/A6/E5/A4/B8/B4/B2/C/B6,,5x/6x,5x/6x,A1/E1/E8/A7/E7/E6/E5/A5/E4/A3/B7/B3/B1/C/B5,,3x/4x,3x/4x,A2/E2/E1/A8/E8/E7/E6/A6/E5/A4/B8/B4/B2/C/B6,,
{16}7x,7x,8x,,A1/E1/E8/A7/E7/E6/E5/A5/E4/A3/B7/B3/B1/C/B5,,,,2x/1x,,3x/8x,,A2/E2/E1/A8/E8/E7/E6/A6/E5/A4/B8/B4/B2/C/B6,,,,5x/6x,,4x/7x,,A1/E1/E8/A7/E7/E6/E5/A5/E4/A3/B7/B3/B1/C/B5,,,,3xh[8:1]/4xh[8:1],,,,A2/E2/E1/A8/E8/E7/E6/A6/E5/A4/B8/B4/B2/C/B6,,,,
{8}6xV48[8:1],8xV62[8:1],2xV84[8:1],,3x-7[8:1]*V57-1-5[16:3],,,,
{8}2x-6[8:1]/8x-4[8:1],4xV68-2[16:3],2x/8x,,5x-1[8:1]*-3[8:1],3x-7[16:1]/1xV75[16:1],5x,,
{16}2x-8[16:1],8x-6[16:1],6x-4[16:1]*-2[8:1],,4x-8[16:1],,,,
{8}5x-3[16:1]*V71[16:1],1x-5[16:1]/7x-3[16:1],,,2x-6[8:1],4x-8[8:1],2xV86-4[4:1],,2x-6[8:1],,2xv4[8:1]*v8[8:1],,
{4}2bxV86V48V62[2:1],,,,6bxV48V62V84[2:1],,,,3bxV57V15V73[2:1],,,,5bxV71V73V51[2:1],,
{8}E3,A3,E3,A3,
{8}7x/8x,7x/8x,A1/E1/E8/A7/E7/E6/E5/A5/E4/A3/B7/B3/B1/C/B5,,1x/2x,1x/2x,A2/E2/E1/A8/E8/E7/E6/A6/E5/A4/B8/B4/B2/C/B6,,5x/6x,5x/6x,A1/E1/E8/A7/E7/E6/E5/A5/E4/A3/B7/B3/B1/C/B5,,3x/4x,3x/4x,A2/E2/E1/A8/E8/E7/E6/A6/E5/A4/B8/B4/B2/C/B6,,
{16}7x,7x,8x,,A1/E1/E8/A7/E7/E6/E5/A5/E4/A3/B7/B3/B1/C/B5,,,,2x/1x,,3x/8x,,A2/E2/E1/A8/E8/E7/E6/A6/E5/A4/B8/B4/B2/C/B6,,,,5x/6x,,4x/7x,,A1/E1/E8/A7/E7/E6/E5/A5/E4/A3/B7/B3/B1/C/B5,,,,3xh[8:1]/4xh[8:1],,,,A2/E2/E1/A8/E8/E7/E6/A6/E5/A4/B8/B4/B2/C/B6,,,,
{8}6xV48[8:1],8xV62[8:1],2xV84[8:1],,3x-7[8:1]*V57-1-5[16:3],,,,
{8}2xV84[8:1],4xV68-2[16:3],2x-6[8:1]/8x,,5x-1[8:1]*-3[8:1],3x-7[16:1]/1xV75[16:1],5x,,
{16}2x-8[16:1],8x-6[16:1],6x-4[16:1]*-2[8:1],,4x-8[16:1],,,,
{8}5x-3[16:1]*V71[16:1],1x-5[16:1]/7x-3[16:1],,,2x-6[8:1],4x-8[8:1],2xV86-4[4:1],,2x-6[8:1],,2xv4[8:1]*v8[8:1],,
{8}2xV86V48[2:1],,,,8xv2[8:1]*v6[8:1],8x,C,,7xv1V75-3v5[2:1],,,,
{16}1x,1x,1x,,2bxv4[8:1]*v8[8:1],,2bx,,
{8}2xV86V48[2:1],,,,8xv2[8:1]*v6[8:1],8x,C,,7xv1V75-3v5[2:1],,,,
{16}1x,2x,1x,2x,B2/E3h[16:1]/B3,,E7h[16:1]/B7/B6,,
{8}1-5[8:1]/2-4[8:1],3/8,A2/E2/E1/A8/E8/E7/E6/A6/E5/A4/B8/B4/B2/Cf/B6,,8-4[8:1]/7-5[8:1],6/1,A1/E1/E8/A7/E7/E6/E5/A5/E4/A3/B7/B3/B1/Cf/B5,,4-8[8:1]/3-1[8:1],2/5,A2/E2/E1/A8/E8/E7/E6/A6/E5/A4/B8/B4/B2/Cf/B6,,5-1[8:1]/6-8[8:1],7/4,A1/E1/E8/A7/E7/E6/E5/A5/E4/A3/B7/B3/B1/Cf/B5,,
{16}1-5[8:1]/2-4[8:1],1/2,3/8,,A2/E2/E1/A8/E8/E7/E6/A6/E5/A4/B8/B4/B2/Cf/B6,,,,8-4[8:1]/7-5[8:1],,6/1,,A1/E1/E8/A7/E7/E6/E5/A5/E4/A3/B7/B3/B1/Cf/B5,,,,4-8[8:1]/3-1[8:1],,2/5,,A2/E2/E1/A8/E8/E7/E6/A6/E5/A4/B8/B4/B2/Cf/B6,,,,5-1[8:1]/6-8[8:1],,,,A1/E1/E8/A7/E7/E6/E5/A5/E4/A3/B7/B3/B1/Cf/B5,,,,
{8}6xV48[8:1],8xV62[8:1],2xV84[8:1]/A6f,,3x-7[8:1]*V57-1-5[16:3],,Cf,,
{8}2xV84[8:1],4xV68-2[16:3],2x-6[8:1]/Cf,,5x-1[8:1]*-3[8:1],3x-7[16:1]/1xV75[16:1],A5f,,
{16}2x-8[16:1],8x-6[16:1],6x-4[16:1]*-2[8:1],,4x-8[16:1]/A2f,,,,
{8}5x-3[16:1]*V71[16:1],1x-5[16:1]/7x-3[16:1],A5f,,2x-6[8:1],4x-8[8:1],2xV86-4[4:1]/Cf,,2x-6[8:1],,2xV86V48V62V84V68V26[1:1]/C,,A2/E2/E1/A8/E8/E7/E6/A6/E5/A4/B8/B4/B2/Cf/B6,
