&title=w
&artist=ああああ
&first=0.02
&des=leopard
&lv_5=13+
&inote_5=(192)
{1},,,,
{8}5h[8:3],,,3,5h[4:1],,3,5h[4:1],,3,5h[4:1],,3,5,4,,
{8}6h[8:3],,,4,6h[4:1],,4,6h[4:1],,4,6h[4:1],,4,6,5,,
{8}4h[8:3],,,6,4h[4:1],,6,4h[4:1],,6,4h[4:1],,6,4,5,,
{8}3h[8:3],,,5,3h[4:1],,5,3h[4:1],,5,3h[4:1],,5,3,4,,
{8}7h[8:3],,,1,7h[4:1],,2,7h[4:1],,3,7h[4:1],,4,7,5,,
{8}2h[8:3],,,8,2h[4:1],,7,2h[4:1],,6,2h[4:1],,5,2,4,,
{8}5h[8:3],,,3,6h[4:1],,4,7h[4:1],,5,8h[4:1],,6,5,4,,
{8}4h[8:3],,,6,3h[4:1],,5,2h[4:1],,4,1h[4:1],,5bh[2:1],,,,
{8}2,2,1h[4:1],,2,3h[4:1],,2,1h[4:1],,2,3h[4:1],,2,8h[4:1],,
{8}7,7,8h[4:1],,7,6h[4:1],,7,8h[4:1],,7,6h[4:1],,7,5h[4:1],,
{8}6,6,7h[4:1],,6,5h[4:1],,6,7h[4:1],,6,5h[4:1],,6,4h[4:1],,
{8}3,3,4h[4:1],,3,2h[4:1],,3,4h[4:1],,3,2h[4:1],,3,1h[4:1],,
{8}2,2-4[8:1],2h[8:1],,6-8[8:1],6h[8:1],,2-4[8:1],2h[8:1],,6-8[8:1],6h[8:1],,2-4[8:1],2h[8:1],,
{8}7,7-5[8:1],7h[8:1],,3-1[8:1],3h[8:1],,7-5[8:1],7h[8:1],,3-1[8:1],3h[8:1],,7-5[8:1],7h[8:1],,
{8}3,3-5[8:1],3h[8:1],,7-1[8:1],7h[8:1],,3-1[8:1],3h[8:1],,7-5[8:1],7h[8:1],,3v8[8:1],3h[8:1],,
{8}6,6-4[8:1],6h[8:1],,2-8[8:1],2h[8:1],,6-8[8:1],6h[8:1],,2-5z1[8:3],2h[8:1],,,,,
{16}8/7,,,4/7,,,5,6,8/7,,,4/7,,,5,6,8/7h[8:1],,,4/7h[8:1],,,1/7h[8:1],,,3/7h[8:1],,,2/7h[8:1],,2,,
{8}2h[8:15]/6h[4:1],,,6h[4:1],,,,,,6,6h[4:1],,,6h[4:1],,,
{16}1/7,,8/7,,,4/7,,,5,6,7/8,,,4/7,,,5,6,8/7h[8:1],,,4/7h[8:1],,,2/7h[8:1],,,3/7h[8:1],,,1,,
{8}1h[4:7]/5h[4:1],,,4h[4:1],,,,,,4,4h[4:1],,,3h[8:1],,,
{12}8/7,,3/7,,5,6,8/7,,3/7,,1,2,
{16}3/7,,,4/5,,4/5,,1/6,,,2/3,,2/4,,2/5,,
{8}2h[8:15]/6h[4:1],,,6h[4:1],,,,,,7,7h[4:1],,,6h[4:1],,,
{16}6-4[12:1],,,6/3,,,3-5[12:1]/6,,,3/7,,,7-5[12:1]/3,,,7/2,,,2-4[12:1]/7,,,2/8,,,8-6[12:1]/2,,,1-3[12:1]/8,,,
(27.428571428571427)
{28}1/8-4b[64:1],,,,,,,{56}8b,,,
(192)
{16}2,,8,1,8,1,8,1,7,,7,,7,,1,8,1x,,,1x,8,,1x,8,1x,,,1x,8,,2x,8,
{16}2,,1,8,1,8,1,8,2,,2,,2,,8,1,8x,,1,8x,,1,8x,,1,8x,,1,8x,
{16},,,,1,7,,1,7,,1,7,,7,,7,,1,8,1x,,2,,2,1,2x,,2,,8,,8,,8,,
{16}2,1,2x,,2,,7,8,7x,,7,,2,1,2x,,2,,7,8,7x,,7,,2,1,2x,,1,8,1,8,
{16}2,,8,1,8,1,8,1,7,,7,,7,,1,8,1x,,,1x,8,,1x,8,1x,,,1x,8,,2x,8,
{16}2,,1,8,1,8,1,8,2,,2,,2,,8,1,8x,,1,8x,,1,8x,,1,8x,,1,8x,
{16},,,,1,7,,1,7,,1,7,,7,,7,,1,8,1x,,2,,2,1,2x,,2,,8,,8,,8,,
{16}2x-4[12:1],1,2,,2,,7x-5[12:1],8,7,,7,,2x-4[12:1],1,2,,2,,7x-5[12:1],8,7,,7,,2h[2:1],,,,,,,,
{16}5,,3,4,3,,{8}2-6[8:1],1,,7-3[8:1],8,,2-6[8:1],1,,7-3[8:1],8,,,
{16}5,,3,4,3,,{8}2-5[8:1],1,,7-4[8:1],8,,2-5[8:1],1,,7-4[8:1],8,,,
{16}5,,3,4,3,,{8}2-4[8:1],1,,7-5[8:1],8,,2-4[8:1],1,,7-5[8:1],8,,,
{16}5,,3,4,3,,{8}2>4[8:1],1,,7<5[8:1],8,,2>4[8:1],1,,7<5[8:1],8,,,
{16}5,,3,4,3-5-2-6-1-7[4:5],,3,,{2},,,
{16}5,,3,4,3-5-2-6-1-6[4:5],,3,,{2},,,
{16}5,,3,4,3-5-2-6-2-5[4:5],,3,,{2},,,
{16}5,,3,4,3-5-3-5-3-6[4:5],,3,,{8},,,,,,,,6z2[12:1],E
{16}
