&title=螺旋追憶の探索者
&artist=TAKIO vs siromaru feat. ぽめ
&first=0.15
&des=flzat7zmd5r
&lv_5=14+
&des_5=flzat7zmd5r
&inote_5=
(195){4},,,,6b/2pp1[2:3],
{8}7,7,7,,,6,
6,6,,7,,6,,4>5[4:7],
,,{4}6h[4:1],{8},,,6,
6,6,,5,,4,,3,
{4}2bqq7[1:1],{8}6,6,,5,,5pp1b[4:3],
,,,,,,4,3,
{4}2-6[8:1],{8}2,8-4[8:1],,8/2-5[8:1],,2-4pp1b[4:3],
,,,,,,,,{4}7qq8[2:3],
{8}2,2,2,,,3,
3,3,,4,,5,,5<4[8:13],
,,{4}3h[4:1],{8},,,4,
4,4,,5,,6,,7,
{32}6bx/2h[4:1],5,{16}4,{32},,,,,,,,3bx/7h[4:1],4,{16}5,,,,,{4}B8/A8/D8/E8/E1/D1,
{64}1h[4:1]/E7f/A7/D7,A6,D6,A5,{16}D5,{64},,,,,,,,,,,,,,,,8h[4:1]/A2/D3/E3f,A3,D4,A4,{16}D5,,,,,{4}1bx,
2bx/B6f/A6/E7/E6/D7,{8}1/B5f/E6/D6/A5/E5/D5,1h[32:7],{32},,,,2,3,4,5,6,7,8,{64}1,6x-3-5V71b[64:41],{8}2bx-7-1V35[8:5],
,,,,,,,,7b/3b,
{16}6,5,{8}7,{16}3,4,2/5h[16:3],,,6h[16:3],,,{8}7pp2[8:3],
{24},,,E4,B4,B5,{4}E6,{16},,1/5,8/4,{4}7/3,
{8}6b/2b,{16}3,4,{8}2,{16}6,5,7/4h[16:3],,,3h[16:3],,,{8}2qq7[8:3],
{24},,,E6,B5,B4,{4}E4,{16},,8/4,1/5,{4}2/6,
2b/E6f/B6/B5/A6/D6/A5,2b,{16}8b/E4f/B4/B3/A4/A3,,,6b/E2f/B1/A1/B2/A2,,,{8}4b/E8f/B7/A7/A8/B8,
{16},,,,,,,,7b/1b,,,5b/3b,,,{8}8b/2b,
3-8[8:1],3,7-4[8:1],7,3<6[8:1],3,{16},7>2[8:1],,7,
,,4,5,6,7,8,1,{2}2/E6f/D6f/A5f,
{4}5/2h[8:1],5/2h[8:1],{8}4/2h[8:1],5,{4}6/2h[8:1],
7/1h[8:1],{8}1h[8:1],4,1h[8:1],5,1h[8:1],6,
{4}2/7h[8:1],3/7h[8:1],{8}4/7h[8:1],3,{4}2/7h[8:1],
3/8h[8:1],{8}8h[8:1],4,8h[8:1],3,8h[8:1],2,
{4}8-6-2b[4:1],{8}4qq5<4[4:3],4,,,,8h[8:3],
,,,,{4}8<5[8:1],8>3[8:1],
{8}8qq5[8:3],,,,,,,1-3pp8b[8:5],
,,,,,,,,{4}7h[8:1],
4/7h[8:1],{8}4/7h[8:1],3,{4}2/7h[8:1],
4/8h[8:1],{8}8h[8:1],5,8h[8:1],4,8h[8:1],3,
{4}6/2h[8:1],5/2h[8:1],{8}4/2h[8:1],5,{4}6/2h[8:1],
5/1h[8:1],{8}1h[8:1],4,1h[8:1],5,1h[8:1],6,
7b/2h[8:3],{64},,,,,,,,,,,,,,,,E8f,E7,E6,E5,{4},{16},{4}3b/6b,
{8}3b/7h[8:3],{64},,,,,,,,,,,,,,,,E2f,E3,E4,E5,{4},{16},{4}6/2,
8/4,{8}1/5,8/4,,3-6[8:1]/7-2[8:1],,Cf/B7/B6/B2/B3/3bV17<3b[2:1]/7bV53>7b[2:1],
,,,,,,,,{4}1b-3[8:1],
{8}4-8[8:1],4,,2-6[8:1],,2-4[8:1]/7-1[8:1],
,2/7-3[8:1],,7>3>7[8:3],,,,,{4}4-8[8:1],
{8}7-5[8:1],7,,1-5[8:1],,1-3[8:1]*-7[8:1],
,1w5[8:1],,1,,,2/8,3/7,
{4}4/6-1[8:1],6/2-4[8:1],2-6[8:1]/7-4[8:1],7>3[4:1],
3V57[4:1],7V13[4:1],{2}3<3[2:1],
4h[4:3],{16}5,6,7,8,1,2,3,4,
2bx,5,3,6,4,7,5,8,5,7,4,6,3,5,2,4,
{4}1bx-3[8:1],{8}4-8[8:1],4,,2-6[8:1],,2-4[8:1]/7-1[8:1],
,7-3[8:1],,7<3<7[8:3],,,,,{4}1-5[8:1],
{8}6-8[8:1],6,,2-6[8:1],,7>5b[8:3],
,,,,{2}8h[2:1],
6h[2:1],5h[2:1],
4h[2:1],3,
{8}7b/8b,6b/1b,,2b/1b,{4}8b/3b,{8}5b/4b,6b/3b,
,1b/8b,{4}7b/2b,,1-5[8:1],
1b/Cf/7b-3[8:1],7/2-5[8:1],{8}2-8[8:1],7,2-4[8:1],5-8[8:1],
2,5,{4}1-4[8:1]*-6[8:1],1b,7-4[8:1]/3-8[8:1],
7/3,{8}6/2,2/6-1[8:1],,2-6[8:1]/6>3[8:1],,2/6/Cf,
{32}A2,D2,A1,D1,A8,D8,{16}A7,{4}6x/2x,{8}2-4[8:1],6,{4}2/8-5[8:1]*-4[8:1],
8b,2-8[8:1],{8}2-6[8:1],5,{4}2/7-3[8:1]*-4[8:1],
7b,{8}1/5,2/6,{4}7-1[8:1]/3-5[8:1],3b/7b-3[8:1],
7b,{8}2,2-5[8:1]/6-1[8:1],,2-8b[8:1]/6-4b[8:1],,6b/2b,
{32},,,,D1/D5,A1/A5,D2/D6,A2/A6,{4}D7f/D3f,{24}8,{48}7,6,,,{24}4,3,2,7,6,5,3,2,1,
{4}7-5-1[8:3],7/2-4b[8:1],{8}2qq7[4:3],,,5,
,,{4}5-3b[8:1],5,1>4[8:1],
6<1[8:1],{8}3<6[8:1],3,,8h[2:1],{32},,,,2b,3,4,5,
6,7,,1,{8}A2f/E2/B2/E3,,,,,,,7b/3b,
7/3,2/6,6/2,1/5,2/6,3/7,4/8,
7/5,7/5,1/3,1/3,4/6,4/6,2/8,8/2,
{4}3-5[8:1],{8}7-1[8:1],7,,3-8[8:1]*-6[8:1],,3b,
{16},,1,5,1,5,1,5,{32}1b,2,3,4,5,6,7,8,{4}1/Cfh[16:0],
{8}2-5[8:1],8,2,7-4[8:1],1,7,3-8[8:1],5,
3,6-1[8:1],5,6,3-8[8:1],4-7[8:1],3,4,
2-7[8:1],6,2,6-3[8:1],3,6,1-4[8:1],6,
1,5-8[8:1],3,5,{24}1b,2,3,4,5,6,1,2,3,4,5,6,
{4}1bx/7,{8}2-5[8:1],7,2,6-1[8:1],3,6,
3-6[8:1],8,3,7-2[8:1],4,7,{4}3,
{16}7h[8:1]/5h[8:1],,,1h[8:1]/3h[8:1],,,{8}7/5,{64}3x,E4,B4,B5,{16}E6,{64}7x,E8,B8,B1,{16}E2,{64}2x,E3,B3,B4,{16}E5,{64}6x,E7,B7,B8,{16}E1,
,,{8}8x/4x,7x/3x,2x/6x,{64}A1/B1,E2,B2/A2,E3,B3/A3,E4,B4/A4,E5,B5/A5,E6,B6/A6,E7,B7/A7,E8,B8/A8,E1,{4}B1f/A1,
{16}4b,6,4,6,3b,7,3,7,2b,6,2,6,1b,5,1,5,
2b,6,4,8,3b,5,1,7,2b,6,2,6,4b,8,4,8,
{8}7x/5x,7x/5x,,,3x/1x,1x/3x,{16},,,,7b/2b,
,,6b/3b,,,{8}5b/4b,{4}6b-8[8:1]/3b-1[8:1],6b/3b,
{16}6b/E5f,,,7b/E4f,,,{8}8b/E3f,{16},7b/B4f,,,,,,,3b/E5f,
,,2b/E6f,,,{8}1b/E7f,{16},2b/E8f,,,,,,,2b,
7,1,8,2b,7,1,8,2b,7,2b,6,2b,5,2b,4,
{24}1b,2,3,7b,6,5,1b,2,3,7b,6,5,{32}3b,4,5,6,7,8,1,2,6b/3b,5,4,3,2,1,8,7,
{1}3b/6<7>8>1>2>3<4<5<6[4:11]*<7>8>1>2>3<4<5<6b[4:11],
,,,6h[1:2],
3h[1:1],
{8},,8bx/1bx,8bx/1bx,,7bx<1b[8:5]/2bx>8b[8:5],{32},,,,7bx/2bx,D7f/D3f,D6/D4,D5,
{4},,,8-4[8:1],
Cf/2-6[8:1],7-4[8:1],{8}7-1[8:1],2,7-5[8:1],4-1[8:1],
7,4,{4}8-5[8:1]*-3[8:1],8b,6-1[8:1]/2-5[8:1],
{8}2b/6b,,,B6f/E7/B7/B5/E6/A6/D7/A7/D6,,B3f/B4/E4/A4/D4/A3/E3/D3,,B1f/B8/E1/E2/B2/A8/A1/D2/A2/D1,
,,,,,,,,3b/4b,
4/3,5/2,2/5,1/6,1/6,7/8,8/7,
6/5,6/5,4/3,4/3,1/2,1/2,7/8,8/7,
{4}1b>4[8:1],{8}6<1[8:1],6,,3<6[8:1],,3,
{16}7,8,1,2,3,4,5,6,{24}7/1b,2,3,4,5,6,2b,3,4,5,6,7,
{1}2/8<7<6>5>4>3>2<1<8[4:5],
,{32}2b/6bh[16:17],
3,4,5,,7,8,1,2b,3,4,5,,7,8,1,2b,3,4,5,,7,8,1,2b,3,4,5,,7,8,1,
{8}2b,{16}5,4,{8}3,{24}E2,B1,B8,{8}E8,{16}7/3,8/4,{4}1/5,
{8}7b/4b,{16}5,5,{8}6,{16}3,5,{8}3h[8:1],4h[8:1],5h[8:1],6qq3[8:3],
{24},,,E2,B1,B8,{4}E8,{16},,8/4,1/5,{4}2/6,
7b/B3f/E4/D4/A3/E3/D3,7b,{16}5b/B1f/E1/D1/A1/D2/E2,,,3b/B7f/A7/D8/E8/E7/D7,,,{8}1b/B5f/E6/E5/D6/A5/D5,
{16},,,,,,,,8b/2b,,,7b/1b,,,{8}5b/3b,
6/2,{16}3,4,{8}3,{16}6,5,7,5,{8}6,{16}3,4,2,4,
{4}3,{16}5b,1,5,1,7,3,7,3,8,4,{8}8,
{32}8bx/4bx,7/3,6/2,5/1,{8}4/8,8x/4x,{32}8bx/4bx,1/5,2/6,3/7,{8}4/8,8x/4x,{32}8bx/4bx,7x/3x,6x/2x,5x/1x,8x/4x,5x/1x,6x/2x,7x/3x,
{8}8x/4x,{16}8,4,8,4,8,4,{32}8b,7,6,5,4,3,2,1,8w4[8:1],7,6,5,4,3,2,1,
{1}8/Cf/B7/B8/B1/B2/B3/B4/B5/B6,
{8},,,,,,,,E5,
E4,E3,E6,E5,E4,E7,E6,
E5,E8,E7,E6,E1,E8,E7,C,
E
