&title=いざ、参ります
&artist=U-ske / 棗いつき
&first=0
&lv_4=1
&des_4=
&inote_4=
(188){4},
E
&lv_5=13+
&des_5=albertoBradish
&inote_5=
(188){4},{1},{4},,{8},{16}2x,
3x,
{8}4bxpp1[4:7],,,8,,,{4}8,
{8},8,,,8,,,7,
6xh[4:5],,,5,,,{4}4,
{2}3h[2:1],{8}7,8-4[8:1],,8bx/2,
,2,{4}3xh[8:1]/4xh[8:1],6h[8:1]/5h[8:1],1h[8:1]/7h[8:1],
{8}3,5,4,6,{2}5w1[8:1],
{4}6xh[8:1]/5xh[8:1],3h[8:1]/4h[8:1],2h[8:1]/8h[8:1],6h[8:1]/5h[8:1],
{8}4xh[4:1],{16}B5,B6,{8}B7,2xh[8:3],{16}E2,E3,E4,E5,{4}E6,
7xh[8:1]/1h[8:1],6h[8:1]/5h[8:1],3h[8:1]/4h[8:1],8h[8:1]/2h[8:1],
{8}6,4,5,3,{2}4w8[8:1],
{4}3xh[8:1]/4xh[8:1],6h[8:1]/5h[8:1],7h[8:1]/1h[8:1],3h[8:1]/4h[8:1],
5bxV71[16:3],{8}2,3,{4}4-8[8:1],4x/7,
Ch[8:1],{8}7,6,{16}5x,4x,5x,4x,{8}5x,2,
3,5,5,4,6,6,5,7/4,
{4}8>3[8:1],8x/4-1[8:1],4x/8<5[8:1],8x/2x,
{8}3,{16}3,5,{8}4,4,3x,2x,1x/5,6,
{4}7/8-4[8:1],{8}1x,2,{16}3,4,3,4,{8}3,5,
5x/6x,5/6,4/7,8,4x/3x,4/3,5/2,1,
{4}1x-5[8:1],{8}8,7,6,5/6,3,4/3,
7-4[8:1],8,{4}7x/1,{8}3-8[8:1],4,{4}3x/5-1[8:1],
{8}5bqq7[4:7]`Cf,,,1x,,,{4}1x,
{8}1,,,2,,,{4}3,
{8}4p8[2:1],,,7,,,{4}6,
{8}5x/1,6,7,8,2x,3,{4}8/4>2[8:1],
{8}5/4xqq8[4:3],{16},,,,5x,6x,{2}7x,
{8}5x<1[2:1],,,1,,,{4}2,
{8}3x>8[16:3],4,5,6,6x<1[16:3],5,4,3,
2bp5[16:3],1bx,8bx,7bx,6bx,4bx,3bx,2bx,
{1}1bh[8:7]/5bh[16:15],
{16}E2,B2,B3,E4,E6,B6,B7,E8,{32}2x,3x,4x,5x,6x,7x,8x,1x,{4}2v5[8:1],
2b/1b,{8}7-4[8:1],8,{4}7/1,{8}2-4[8:1],4x-8[8:1],
2,6,{4}5-7[8:1],5/1-5[8:1],1/8x,
8>3[8:1],8x/E5/B4/B5,7>3[6:1],7x/E4/B3/B4,
6<3[16:3],6x/E2/B1/B2,{8}4x-8[8:1],5x,{4}4x,
{8}7bx,7/4,6/3,5/2,2,2/5,3/6,4/7,
8-4[8:1],2,{4}8x-6b[8:1],{2}1x/8xpp2[16:3],
{4}7<4[8:1],{8}7x/1,2,{4}3>8[8:1],{8}3x/5,6,
{4}7h[8:1],{16}7,8,7,8,7,8,7,8,{8}7v4[8:1],6x/1x,
{4}7b/8b,{8}2-5[8:1],1,{4}2/8,{8}7-5[8:1],5x-1[8:1],
7,3,{4}4-2[8:1],4/8-4[8:1],8/1x,
1<6[8:1],1/E5/B5/B4,2<6[6:1],2/E6/B6/B5,
3>6[16:3],3/E8/B8/B7,{8}5x-1[8:1],3,{4}5x,
{8}2b,2/5,3/6,4/7,7,7/4,6/3,5/2,
1-5[8:1],7,{4}1-3b[8:1],{2}8x/1xqq7[16:3],
{4}2b>5[8:1],{8}2/8,7,{4}6b<1[8:1],{8}6/4,3,
{4}2bqq5[8:3]/6bxqq1[8:3],{8},,,,3x,1x/5x,
{4}7x-3[8:1],7b/4V62[8:3]`Cf,{8},,,7V15[8:3],
{16},,,,,,2,3,{8}4,4x,5,5,
4/6pp3[2:1],,,,,,,2pp7[2:1],
,,,,6,5,{4}5-1[8:1],
{8}5bx/2h,{24}E3,B3,B4,{8}E5,{24}E8,B7,B6,{8}E6,{24}2,3x,4x,{8}5x,{24}1,8x,7x,
{8}6x,{16}4x,5,3x,5,2x,5,2x,5,1x,6,1x,6,8x,7,
{8}8bx,1bx/6bx,{16}6,5,{8}6,1bx,3bx/8bx,{16}3,4,{8}3,
1bx,3bx/8bx,{16}6,5,{8}6,{16}8,7,1,6,2,5,{8}3,
{1}Cf/4bxqq1[2:3]*pp7[2:3],
,4xp7[2:1]/8xp3[2:1],
{16}7x,8,1,2,4x,5,6,7,1x,2,3,4,6x,7,8,1,
{1}Cf/B8/B1/B2/5bw1[2:1],
{8}3/6,{24},,,,,,3,4,5,{4}6,8-4[8:1]/1-5[8:1],
{8}8b/1b,{16},,,,,,,,,,,,E6,E5,
{1}E4,
{2}4>1[4:1],5<8[4:1],
{8}1x,2,3,4,{4}5w1[8:1],5b,
{8}7bx-5[8:1],5x-1[8:1],7,2,3>8[8:1],4,3/7-5[8:1],6,
7x-3[8:1],3-5-1[4:1],7x,2x,{4}2xV48[16:3],{8}2x/8x,7,
6b-1[8:1],5,4/6,3,3-8[8:1],4,5/3,7b,
,6/1,{16}7,8,7,8,7,8,7,8,{8}7,1/6,
2b-5[8:1],7-1[8:1],2,7,3x-8[8:1],6x-4[8:1],3,6,
1x>4[8:1],5x,6,7,8<5[8:1],4,3,2,
{4}1-5[8:1],{8}1b/2,3,{4}4-8[8:1],{8}4b/5,6<2[4:1],
,2,3,4,{4}5v2[8:1]*-8[8:1],5,
{8}1bx,2x/4x,3/5,4/6,8,7/5,6/4,5/3,
2-4[8:1],4-8[8:1],2,5,{4}6h[4:1],{8}8x-4[8:1],1,
8b/2,2,1-5[8:1],8,7/1b,7,6<1[8:1],5,
{4}6/4-8[8:1],4/7-4[8:1],7/1,{8}6,7,
8b/2b,{16}4,4,{8}5,6,1b/7b,{16}5,5,{8}4,3,
7b/8b,2b/5b,4b-8[8:1]/3b-7[8:1],1b/6b,{4}3b/4b,C,
E
