&title=パノプティコン
&artist=r-906
&first=0.06
&des=aycp
&lv_5=14.0
&des_5=aycp
&inote_5=
(174){4},{16},,,,2/8,3/7,{8}4/6<5[8:27],{1},,,{4},,,{2}5>6[4:13],
{1},,,{8},5,
6h[8:1],4,2,3,7,3h[8:1],
6,5h[8:1],,2,7,8h[8:1],1v4[4:1],1,
5,6h[8:1],,5,2,6v1[4:1],6,4,
{4}2h[8:1],{8}8,6,4,3h[8:1],,5,
6h[8:1],4h[8:1],,5,2q7[4:3],2,2,1,
8,8,1,4,4,3/7,1,1h[8:1],
6h[8:1],4p3[1:1],4,4,5,6,7,8,
{4}8-3[8:1],8b,,4b-1>2-6>5-8-4b[8:13],
{8},,,,,,,,,,,,7,
7,5,6,
5h[8:1],4-1[8:1],4,6,5,5-8[8:1],6,5/4,
4,4b,5,6,8v2[4:1],7,2,3,
4h[8:1],7,3h[8:1],6-2[4:1],{4}6h[8:1],{8}4,5,
3-7[4:1],3h[8:1],,2,5,4,{4}6h[8:1],
2h[8:1]/7h[8:1],{8}1/2-5[4:1],2,{4}2/7-4[4:1],7-2[4:1],
{8}7,,,5/4,4/2,4/5,5/7,4-8[8:1],
3,5-1[8:1],6,4-2[8:1],3,5-7[8:1],6,4-1[8:1],
4,4/5,{4}6h[8:13],5h,{8}4h,5h,
{4}4h,{8}3h,3h,,5h,,3h[1:2],
6h,,,5h,{4}5h,8h,
{8}1h,1h,8h,8h,7h,6h,5h,{16}5,5,
5,5,{8}5,2b,1,2,5,6,5b,
3,3/7,7,6,6/2,2,8,8/4,
4,5,5/1,1,2,2/6,6,5,
4,6,3,7,2,8,1,7,
2,6,3,{16}5,5,{8}5b,1>4[8:1],2,8<5[8:1],
7,2>5[8:1],3,1<6[8:1],{4}8,{8}1,1/8,
8<5[8:1],7,1>4[8:1],2,7<4[8:1],6,8>3[8:1],1,
,,8,8/1,1>4[8:1],2,8<5[8:1],7,
2>5[8:1],3,1<6[8:1],8,,,8/1-5[4:1],2,
1/8-4[4:1],7,{4}8/1,{8},5,4,4,
5,6,{4}7h[8:1]/3h[8:1],6h[8:1]/2h[8:1],5h[8:1]/1h[8:1],
{8}2/6,3/7,4/8,4,8,3,7,2,
6,1,5,{24}8/4,5/1,6/2,{8}7/3,3h[8:1],8-5[4:1],4,
2,3,4h[8:1],8-5[4:1],4,3,1,2,
1-4[4:1],5h[8:1],,5,6,1-4[4:1],8,7,
{4}6h[8:1],{8}8-4[4:1],1,2,2h[8:1],,1-5[4:1],
{4}8h[8:1],{8}6,7,6,7/5,6,5/7,
4/2,3,2/4,3,{16}5,4,5,4,6,3,6,3,
7,2,7,2,8,1,8,1,{8}5b,3/6,3,7/2,
7,6/3,3,4/5,{16}1,8,1,8,2,7,2,7,
3,6,3,6,4,5,4/6,7/3,{2}8/2,
{4}6h,3h,{8},,5h,2h,
6h,4h,{4}3v6[16:7],{8},,,,,5,
6,4,3,6,7,3,
2,7,8,2,1b,,,4h/5h,
3h/6h,7h/2h,{4}8h/1h,{8},,1h,2h/8h,
7h/3h,4h/6h,{4}5h,3h,4h,
{8},5,5,4,3,4,4,5,
6,8,7,8,{4}1b,4-6[4:1],
{8}6-2[4:1],7,{4}8,,5-3[4:1],
{8}3-7[4:1],2,{4}1,{8},4/8,,,,4,
4,6,6,3,3,7,
7,2,2,8,8,1,{4}1,
8b,4b,{8},,,4,
5,6,{12}7,8,1,{16}2,3,4,5,{24}6,7,8,1,2,3,
4,{48}5,6,{96},{32}7,8,1,2,3,4,5,6,7,8,1,2,3,4,5,6,7,{24}8,1,2,{12}3,4,5,
{8}6,2/8-5[8:1]
||这是一个标记~
,8,5,4-2[8:1],4,6-8[8:1],6,
2-6[8:1],2,8-3[8:1],8,4-7[8:1],4,{4}4h[8:1],
{8}3/7,6/2h[8:1],6h[4:1],4,3,4/7-4[8:1],7/3,3>1[8:1],
3,4,6,8-4[8:1],1-5[8:1],8-6[8:1],1-3[8:1],8,
{2}1b-6-2-4b[4:1],{16}6h[8:1],,,5,{8}7,4,
{16}3h[8:1],5,,,{8}4,{16}8h[8:1],6,,,{8}1/7,{16}2h[8:1],5,,,7h[8:1],
3,,,{8}8,8h[8:1],1,2h[8:3],{4}4h[8:1],
{8}5,6,4,5,6,4,5,6,
4,6/2,5/3,4/6,{16}3b,2,1,8,{8}7<4[4:1],7,
4,3,2>5[4:1],5,6,7-3[4:1],6,7,
2V46[4:1],2,6,7V14[4:1],7,4,3<6[4:1],3h,
6<1[4:1],6h,1>4[4:1],1h,4<7[4:1],4h,7-2[4:1],7h,
2-5[4:1],2h,,,6h[4:1],5,4,3h[4:1],
1,8,7h[4:1],6,4,3h[4:1],4,5,
5/3,4/6,5/7,{16}6,4,5,3,4,2,3,1b,2,3,
4,5,6,7,8,1,2,3,4,5,6,7,{8}8,1,
7,3,6,4,2,7>8>1>2>3<4<5<6<7-2-6-3-7[8:57],7,7,
{1},,,,,,,{4},,{2}
||这是一个标记~
,
E
