&title=Glitched Universe
&artist=削除
&first=0
&des=Mao_Yu
&lv_5=14
&des_5=Mao_Yu
&inote_5=
(174.04){4},{1},,{16},Ch[16:3],
,,{2}1x>3q5<7q1q3<5q7>1[4:15],
{4},,,,,,,,,,,,,,Ch[4:1],
1-5[8:27],
{1},,,{4},,{8}4,
4h[4:1],,5,
{4}3h[4:3],{8}7,6,5,5h[8:3],{32},,,,,,B4,B3,
{2}B2,{8}5,5h[4:1],,4,
{4}6h[4:3],{8}2,3,4,4h[8:3],{32},,,,,,B7,B6,
{2}B5,{4}5/3h[4:1],7-5-3[8:3],
3,2,7/1>5[2:1],5,
6,8,4/7h[4:1],2-4-6[8:3],
6,7,4/8<4[8:3],3,
2,1>7[2:1],5,7>3[8:3],
1,5qq1[4:3],{2}5h[4:1],
6h[4:1],7h[1:1]/3<3[8:7],
{4},,,4/6h[8:1],
8-4[8:1],8b,{8}3h[2:1],6h[8:3],,,,,4h[2:1],
5<8[4:1],,,,4,
3,2,1-5[8:1],8,1,7v4[8:1],,7b/2v5[8:1],
,2b/7-1>3-5[8:3],,7b/3h[8:5],,,,,{4}7h[4:1],
{8}1-5[8:1],5-7>8-4>3-1[8:7],{2}1,
{8},,,,6h[4:1],,,8/1,
7/2,3/6,{4}4h[8:1]/5h[8:1],{8}5b/2b,{16}3,4,{8}3,5,
7/4,{16}6,5,{8}6,4,5,2,6-4[8:1],3,
{4}2-4[8:1]/6-8[8:1],2b/6b,{8}4/5,{16}6,5,{8}6,2,
5/4,{16}3,4,{8}3,5,3,7,3-5[8:1],6,
{4}7-5[8:1]/3-1[8:1],7b/3b,{8}4x/1x,{16}2,5,{8}2,7,
5x/8x,{16}7,4,{8}7,2,{2}5-2[8:1]/6>1[8:1],
3<8[8:1]/4-7[8:1],1b>8[8:7]*p8[8:7],
{4},,,1-3[8:1],
1<5[4:1],{8}4,3,{4}2h[4:1],B7/B6,
4h[8:3],{16}6,7,{8}8h[4:1],{4}B3/B2,6h[4:1],
{16}1,2,3,4,{8}5-2[8:1],1-6[8:1],5,1,,4<8[4:1],
,8>4b[4:1],,4<8[4:1],,,,,{2}1h[16:15],
5h[16:11],
{16}2x,3h[8:3],,,6x,7h[16:7],,,4x,5h[16:3],,,,,4,6,
4,6,3,5,3,5,,,{8}2b/6b,4/5,5,4/3,
6/5,7,{16}5,6,{8}5,4b/7b,5/6,{16}4,5,{8}4,
3/4,5/6,{12}1,{24}8,1,,8,{8}2b/7b,4/5,{16}5,3,5,3,
6,4,6,4,7,3,7,3,{6}4/6,{24}8/2,3/7,,,,{8}5/4,
{4}7/2,7b<7<5[0.3447##4.4817]/2b>2>4[0.3447##4.4817],{2}A7f/A2f/E7/D7/D3/E3,
{1},,,{24}1/8,
2/7,6/3,5v7-1v3-5[8:27]`4v6-8v2-4b[8:25],{1},,,{4},,,{16},{48},{24}6/7,
8/5,1/4,3-5-7-1-3b[8:27]`2-4-6-8-2[8:25],{1},,,{4},,,{16},{48},{24}1,
2,3,4,5,6,{8}7<8[4:13],7xh[2:7],{1},,,{4},,{16}B8,
C,{8}B4,{4}6xh[4:1],C,5<4[4:13],
,,,B3,
B1,B7,{2}C/B6/B4/B5,
{4},,,B7,
E1,E3,{2}Ch[1:2]/3x>5[0.3447##4.137],
{1},
{4},,,,,,,4h[2:1],
{8}3,2,1,8,{2}7h[4:3],
{8},,6,5,{4}4h[4:5],B6/E7,
B8/E1,{8},,,,6h[8:3],3h[8:9],
,,E5,E4,E3,E2,E1,E8,
E7,5h[16:5],4pp8[8:5],3,{2}2h[8:11],
{4},7h[4:3],{12},,,,,,{6}6h[6:1],
5h[24:5],{24},{8}4,{2}4h[4:5],
,8b,
{6}1/8,7/2,3/6,4/5h[16:63],{12},{4}6,
7,8,{8}1b,2,3,4,
6,7,8,1,{16}2b,3,4,6,7,8,1,2,
3,4,6,7,8,1,2,3,4b,{32}6,7,8,1,2,3,4,6,7,8,1,2,3,4,
6,7,8,1,2,3,4w8[16:3],6h,7h,8h,1h,2h,3h,4bxh,,,{2}Cf,
{32}8,7/1,2/6,5/3,{8}4h[3:1],{4}8h[24:5],{24}3/7,2/6,1/5,8/4,7,6,5-1[8:1],4,3,2,1,8,
{4}5b/Cf,4xh[4:1],{32}8,3/7,2/6,1/5,{8}8h[32:11],{4}4xh[24:5],
{24}1/5,2/6,7/3,8/4,1,2,3-7[8:1],4,5,6,7,8,{4}1/3b/Cf,5xh[8:1],
{16}2,4,3,7,5,6,{32},,,,1,2/8,7/3,6/4,{8}5h[3:1],{4}1h[24:5],
{24}2/6,3/7,4/8,5/1,2,3,4,5,6,7,{12}8,4b,4,4,6,6,6,
8b,8,8,2,2,2,{16}3b,5,4,6,5,7,8,6,
1b,5,2,4,3,2,4,1,5b>1[4:1],7,4,6,{4}1<5[4:1],
5b>1[4:1],1<5[3:1],{24}5b,4,3,2,1,8,E8,E7,E6,E5,E4,E3,
6b,5,4,3,2,1,4,3,2,1,8,7,6/3b,2,1,8,7,6,3,2,1,8,7,6,
3b,2,1,8,7,6,3,2,1,8,7,6,{8}3b,8-6[8:1],4h[2:1],8x,
{32},,,,8x,1,{16}2,{48},,,,,,{24}2x/8x,3/7,6/4,{2}5h[8:5],
{4}4h[8:3],5q3[4:1],3q1[4:1],1q7[4:1],
7>7[0.3448##0.6895],3,Cfh[4:1],,
{32}8,1/7,6/2,3/5,{8}4h[8:1],,,4b-1[8:1],5,4/6,7b-4[8:1],
8,7/1,2,3,5b-8[8:1],4,5/3,2b-5[8:1],
1,2/8,7,6,5b/4b,2/3,8/1,7b/6b,
{16}5b,6,4,5,3,4,{8}2,{32}2bx/1bh[32:3],3,4,5,,,7bx/8bh[32:3],6,5,4,,,1bx/5bx,2/6,3/7,4/8,
{1}5/1,
E
