&title=Execution Clap
&artist=TRAP CHICK
&first=0
&des_5=AridPlanHeart
&lv_5=13.7
&des=AridPlanHeart
&inote_5=(137){4},,,,
{16}
3/6,,3/6,,4,5,4,,3/6,,5,4,5,,E7,,
2/7,,2/7,,8,1,8,,2/7,,1,8,1,,C,,
3/6,,3/6,,4,5,4,,3/6,,5,4,5,,E3,,
{4}
2h[4:3]/6h[8:7],,,,
{16}
3bx/7bx,,2,6,,4,,8,,,1/8,,2/7,,3/6,,
4,,6,,2,,8,,3,,3,,7,,7,,
6bx/2bx,,7,3,,5,,1,,,8/1,,7/2,,6/3h[16:1],,
5bx,,2bx,,7bx,,3bx,,1/2b,,4/7b,,1/2b,,,,2bx/6bx,,
3,7,,1,,5,,,4/5,,3/6,,2/7,,
1,,7,,3,,5,,2,,2,,6,,6,,
7bx/3bx,,6,2,,8,,4,,,5/4,,6/3,,7/2h[16:1],,
8bx,,3bx,,6bx,,2bx,,4/5b,,2/7b,,4/5b,,,,
E7,,,,C,,,,E3,,,,
E8/B8/B1/E2/E1/Cf/E5,,,,
6/3,,,,7q3[8:1],,3q7[8:1],,7,,1x,,1,,1,,
6b,,,,7,,4,,7-3[16:1],,,,E3f,,,,
2x/3x,,,,1x/4,,8/5x,,7,,6,,7,,5,,
7,,4x,,7,,3x,,6/2,,B7/B6,,B2/B3,,,,
8x,,,,1,,,,7x,,,,2,,,,
6x,,,,3,,,,5x,,,,4b,,,,
4x,,5,,3x,,6b,,2x,,7,,1xh[8:6],,8b,,
7,,6,,5,,4b,,3,,,,3-6[8:1]/7-2[8:1],,,,3b/7b,,,
6x,5,8,3x,4,1,2x,7,2,7,,1h[16:1]/8h[16:1],,,,,
2x,7,4,5x,3,7,3x,6,2,6,,1x,8x,,,
1x,6,2x,7,3x,8,2x,7,1x,6,2h[16:2],,,,
3x,,7b,,3x,,7b,,3x,,7b,,3x,,7b,,3x,,,
3x,4,1,6,5,8,7,2,7,2,,8h[16:1]/1h[16:1],,,,,
7x,2,5,4,6,2,6,3h[16:1],,7b,,3bx,,
2,,6,,2,,7,,1/8,,2/7,,1/8,,
,,Ch[8:6],,B2,,B6,,B3,,B7,,,,,,,,
2/7,,2/7,,1,8,1,,2/7,,8,1,8,,C,,
3/6,,3/6,,5,4,5,,3/6,,4,5,4,,C,,
2/7,,2/7,,1,8,1,,2/7,,8,1,8,,B2/B3,,B6/B7
,,2,7,2,,3/6,,3/6,,C,,E3,,,,
2/7,,2/7,,1,8,1,,2/7,,8,1,8,,C,,
3/6,,3/6,,5,4,5,,3/6,,4,5,4,,C,,
,,1,,7,,1,,5,,8,,3,,7,,
3,,,,7,,,,3b-6[8:1]/7b-2[8:1],,,,3b/7b,,,,
2x/7-5[8:1],,8,,7/2-4[8:1],,3,,2/8-5[8:1],,7,,8/2,,,,
2-6[8:1],,7-3[8:1],,2,,7,,6x,,,4h[16:1]/5h[16:1],,,,,
3x/6-8[8:1],,5,,6/3-1[8:1],,2,,3/5-8[8:1],,6,,5/3,,,,
3-7[8:1],,6-2[8:1],,3,,6,,7x,,,1h[16:1]/8h[16:1],,,,,
2b/7b-5[8:1],,8,,7/2-4[8:1],,3,,2/8-5[8:1],,7,,8/2,,,,
2-4[8:1],,7-5[8:1],,2,,7,,1,,8,,3/6,,2/7,,
1-4b[8:1]/8-5b[8:1],,,,1/8,,,,7/2-4[8:1],,3,,7h[16:1]/2,,,,
5b,,2b,,7b,,4b,,2b/7b,,,,,,,,
2b/7b,,1x,8x,,3,,6,,,1/8,,3/7p3p7[4:3],,2/6,,
7,,8,,1,,2,,5,,5,,2,,2,,
6bx/3bx,,5,4,,7,,2,,,8/1,,7/2,,6h[16:1]/3h[16:1],,
5bx,,2bx,,7bx,,4bx,,1b/8b,,3b/6b,,2b/7b,,,,E7,,,,C,,,,E3,,,,
{32}E6/E4,B6/B3,B7/B2,E8/E2,,,,,
{16}7bx,,2b,,6,5,8,3,4,1,2,7,2,,C,,
3b,,6b,,3,5,1,6,4,8,2,7,1/8,,C,,
2/6,,3/7,,7,5,1,3,5,1,E7,E3,2/6,,,,
E7/B6/C/B2/E3,,,,E3/B4/C/B8/E7,,,,E7hf[16:1]/B6hf[16:2]/B2hf[16:3]/Cf/E3hf[16:4]/B3hf[16:5]/B7hf[16:6],,,,,,,,
7x/6x,,,,2x/3x,,,,E7,,E3,,C,,,,
E8/B7/B8/E7/E1,,E2/B1/B2/E1/E3,,E4/B3/B4/E3/E5,,E6/B6/B5/E7/E5,,E8h[48:9]/B8h[48:7]/B1h[48:5]/E2hf[48:12]/B2h[48:3]/B3h[48:2]/E4h[48:10]/B4h[48:8]/B5hf[48:6]/E6h[48:11]/B6h[48:4]/B7h[48:1]/Chf[64:1],,,,,,,,6,3,8,1,E6,E4,E8,E2,6,3,8,1,C,,,,2,,6bx,,3,,7bx,,7/3,,,,7v2[8:1]/3v6[8:1],,,,7/3/C,,,
1h[16:1]/5h[16:3],,,,,2,8,4,6,C,,B2/B3,B6/B7,,,,
7,2,,C,,1,6,2,7,3,8,2,7,,,,
1x,6,2x,7,3x,8,2x,7,1x,6,2,7h[16:2],,,,
3x,,7b,,3x,,7b,,3x,,7b,,3x,,7b,,,
6x,5,8,3x,4,1,2x,7,2,,1h[16:1]/8h[16:1],,,,,
2x,7,4,5x,3,7,3x,6,2,6,,1x,8x,,
1hx[16:12],,,,8,,7,,6,,5,,4,,,,2/5,,3/6,,7<5[8:1]/4>2[8:1],,C,,4/7,,,,,,,,
8h[4:1],,,,4h[4:1],,,,1h[4:1],,,,5h[4:1],,,,
2h[4:1],,,,6h[4:1],,,,3,,,,3h[4:1],,,,
8h[4:1],,,,4h[4:1],,,,7h[4:1],,,,3h[4:1],,,,
6h[4:1],,,,2h[4:1],,,,5,,,,5h[4:1],,,,
8h[4:1],,,,4h[4:1],,,,1h[4:1],,,,5h[4:1],,,,
2h[4:1],,,,6h[4:1],,,,3,,,,3h[4:1],,,,,,
1,,7,,1,,5,,8,,3-6b[8.317##0.21],,7-2b[8.097##0.21],,
,,,,,,,,,,,,,,,,,,,,,,,,,,,,,,,,,,,,,,,,
1/5,,,,,,,,2/6,,,,,,,,1/5,,,,4/8,,,,3/7,,,,3/7,,,,3b/7b,,,,
7/1-5[8:1],,3,,1/7-3[8:1],,6,,7/2,,,,
2-6[8:1],,7-3[8:1],,2,,7,,6x,,,4h[16:1]/5h[16:1],,,,,
3x/6-2[8:1],,6,,6/3-5[8:1],,3,,3/7-1[8:1],,6,,7/3,,,,
3-7[8:1],,6-2[8:1],,3,,6,,7x,,,1h[16:1]/8h[16:1],,,,,
2b/7b-5[8:1],,8,,7/2-4[8:1],,3,,1-4[8:1]/8-5[8:1],,7,,8/1,,,,
2-4[8:1],,7-5[8:1],,2,,7,,1,,8,,2/7,,3/6,,
4-1b[8:1]/5-8b[8:1],,,,4/5,,,,7/2v4[8:1],,3,,7h[16:3]/2,,,,
3b,,7b,,2b,,5b,,7b/2b,,,,,,,,
7b/2b,,8x,1x,,6,,3,,,8/1,,6/2,,7/3,,
2,,1,,8,,7,,3,,4,,5,,6,,
3bx/6bx,,4,5,,2,,7,,,1/8,,2/7,,3h[16:1]/6h[16:1],,
4bx,,7bx,,2bx,,5bx,,8b/1b,,6b/3b,,7b/2b,,,,
2bx/6bx,,
3,7,,1,,5,,,4/5,,3/6,,2/7,,
1,,7,,3,,5,,2,,2,,6,,6,,
7bx/3bx,,6,2,,8,,4,,,5/4,,6/3,,7/2h[16:1],,
8b,,3b,,6b,,2b,,4b/5b,,2b/7b,,4b/5b,,,,
1bx/8bx,,,,3bx/6bx,,,,1bx/3bx,,,,8bx/6bx,,,,5bx/2bx,,,,4bx/7bx,,,,4bx/5bx,,,,1bx/2bx,,,,8bx/7bx,,,,3bx/4bx,,,,5bx/6bx,,,,1b,,,,
,,,,,,,,,,,,,,,,Ch[4:6],,,,,,,,,,,,,,,,,,,,,,,,,,
,,7,,3,,8,,2,,4,,7,,2,,6,,
3x,4,1,,6/2,,7/3,,6x,5,8,,7/3,,6/2,,
7x,3,7,,2,,6,,1x,8,1,,1/8,,,,
2x,2,2,,2,,2,,7x,7,7,,7,,7,,
1x/8x,1/8,1/8,,1,,8,,2x,7,2,,3,6,3,6,
4x,5,4,,2/7,,3/6,,1x,8,1,,2/7,,3/6,,
2x,7,2,,2/7h[8:1],,,,3x,3,3,,
4x,4,4,,5x,5,5,,6,,6,,
3x,4,1,,6/2,,7/3,,6x,5,8,,7/3,,6/2,,1b,,,,,,
E
