&title=Cotton Eye Joe
&artist=瑞典乐团
&first=1.02
&des=Gegagedigedagedago
&clock_count=4
&lv_5=13+
&des_5=
&inote_5=(132)
{1},,,,
{4},
{16}3,4,3,4,3,4,3,4,3,4,2,5,3,,3,,
3,4,3,4,3,4,3,4,3,4,2,5,3,,4,,
4,5,4,5,4,5,4,5,4,5,3,6,4,,5,,
5,6,5,6,5,6,5,6,5,6,4,7,5,,6,,
7h[8:1],,5,5,7h[8:1],,6,,7h[8:1],,5,5,7h[8:1],,4,,
7,5,6,5,7,4,5,4,7,5,6,5,7,,67,,
7h[8:1],,5,5,7h[8:1],,6,,7h[8:1],,5,5,7h[8:1],,4,,
6p3[2:1],,,,,,,,,,,,,,,,
4b-8[8:1],,2,2,4,,3,,4-8[8:1]/6,,6,,4,,5,,
4-8[8:1]/2,,2,2,4,,3,,4-8[8:1]/6,,5,5,4,,5,,
4-8[8:1]/2,,2,2,4,,3,,4-8[8:1]/6,,6,,4,,5,,
4-8[8:1]/2,,2,2,4,,3,,4-8[8:1]/6,,8-4[8:1],,4,,,,
5b-1[8:1],,7,7,5,,6,,5-1[8:1]/3,,3,,5,,4,,
5-1[8:1]/7,,7,7,5,,6,,5-1[8:1]/3,,4,4,5,,4,,
5-1[8:1]/7,,7,7,5,,6,,5-1[8:1]/3,,3,,5,,4,,
5-1[8:1]/7,,7,7,5,,6,,5-1[8:1]/3,,1-5[8:1],,5,,,,
2h[8:1],,4,4,2h[8:1],,3,,2h[8:1],,4,4,2h[8:1],,5,,
2,4,3,4,2,5,4,5,2,4,3,4,2,,32,,
7h[8:1],,5,5,7h[8:1],,6,,7h[8:1],,5,5,7h[8:1],,4,,
7,5,6,5,7,4,5,4,7,5,6,5,7,,87,,
2hx[8:1],,4,4,2hx[8:1],,3,,2hx[8:1],,4,4,2hx[8:1],,5,,
2x,4,3,4,2x,5,4,5,2x,4,3,4,2x,,12,,
7hx[8:1],,5,5,7hx[8:1],,6,,7hx[8:1],,5,5,7hx[8:1],,4,,
7x,5,6,5,7x,4,5,4,7x,5,6,5,7x,,87,,
1-5[8:1],,,,5-2[8:1],,6,,8-4[8:1],,,,3V16[4:1],,1V74[4:1],,
,,,,,,5bw1[8:1],,,,,,,,
7-4[8:1],,6,,3-7[8:1],,2,,1,,8>6[4:1],
,,,,,,,7-3[8:1],,1-5[8:1],,7b<1[4:1],,1b,,7b,,,,,,5,,
4-6[8:1]*-7[8:1],,,,4-8[8:1],,,,4-2[8:1],,,,
4-1[8:1],,1-5[8:1],,5-7[8:1],,,,,,8bw4[8:1],,,,,,,,
6v5[4:1],,7,,5-8[8:1],,4,,2v1[4:1],,3,,1-4[8:1],,8,,,,6,,56,,37,,,,8h[4:1],,,,Cf,,,,
1b-5[8:1],,3,3,1,,2,,1-5[8:1]/7,,7,,1,,8,,
1-5[8:1]/3,,3,3,1,,2,,1-5[8:1]/7,,8,8,1,,8,,
1-5[8:1]/3,,3,3,1,,2,,1-5[8:1]/7,,7,,1,,8,,
1-5[8:1]/3,,3,3,1,,2,,1-5[8:1]/7,,5-1[8:1],,1,,,,
8b-4[8:1],,6,6,8,,7,,8-4[8:1]/2,,2,,8,,1,,
8-4[8:1]/6,,6,6,8,,7,,8-4[8:1]/2,,1,1,8,,1,,
8-4[8:1]/6,,6,6,8,,7,,8-4[8:1]/2,,2,,8,,1,,
8-4[8:1]/6,,6,6,8,,7,,8-4[8:1]/2,,4-8[8:1],,8,,,,
1h[8:1],,4,2h[8:1],,7,1,1,4,4,2-5[12:1],6,1,,,,
8h[8:1],,5,7h[8:1],,2,8,8,5,5,7-4[12:1],3,8,,,,
2h[8:1],,5,3h[8:1],,8,2,2,5,5,3-6[12:1],7,2,,,,
7h[8:1],,4,6h[8:1],,1,7,7,4,4,6-3[12:1],2,7,,,,
4h[8:1],,1,3h[8:1],,6,4,4,1,1,3-8[12:1],7,4,,,,
5h[8:1],,8,6h[8:1],,3,5,5,8,8,6-1[12:1],2,5,,,,
3h[8:1],,8,2h[8:1],,5,3,3,8,8,2-7[12:1],6,3,,,,
6h[8:1],,1,7h[8:1],,4,6,6,1,1,7-2[12:1],3,6,,,,
4-1[8:1],,3,,7p4[8:3],,8,,8-3[8:1],,,,,,,,
4-1[8:1],,3,,7p4[8:3],,8,,3-8[8:1],,,,,,,,
4-7[8:1],,5,,1p4[8:1],,2,,6-1[8:1],,,,56,,,,
4-7[8:1],,5,,1p4[8:1],,2,,6q3[8:1],,,,,,,,
5-8[8:1],,6,,2q5[8:3],,1,,1-6[8:1],,,,,,,,
5-8[8:1],,6,,2q5[8:3],,1,,6-1[8:1],,,,,,,,
5-2[8:1],,4,,8q5[8:1],,7,,3-8[8:1],,,,43,,,,
5-2[8:1],,7<4[8:1],,,,,,
{24},,37,48,15,26,37,,,,,
{384},,,,,,,,,,,
{16}6,5,6,5,6,5,6,5,6,5,7,4,6,,5,,
5,4,5,4,5,4,5,4,5,4,6,3,5,,4,,
4,3,4,3,4,3,4,3,4,3,5,2,4,,3,,
