&title=D/N/A
&artist=Azari
&first=0
&des=幸せ
&des_5=幸せ
&lv_5=13
&inote_5=(150){1},
{1},
{8},E5,E4,E3,E2,,,,
{8},E7,B7,B8,E1,,,,
{8},E5,E6,E7,E8,,,,
{8},E3,B2,B1,E1fh[4:1],,,,
{16}7x-4[8:1],,,,78,,,,2h[16:3],,,3h[16:3],,,4h[8:1],,
{16}6-1[8:1],,,,65,,,,4,,,6/B3,,,3/E7,,
{16}2x-5[8:1],,,,21,,,,7h[16:3],,,6h[16:3],,,5h[8:1],,
{4}3-6b[8:1],7-2b[8:1],4w8b[8:1],D4/D5/A4f,
{8}2/6>3[4:1],,1,1h[8:3],,,7,7,
{8}6,5,4,3,2-8[8:1],,5x,,
{8}6-2[8:1],,6pp6[4:1]*qq6[4:1],,,,,2,
{4}1>3[8:1]*<7[8:1],1w5[8:1],C,37,
{8}E1,E2,E3,E4,E5,,3,3,
{8}8,7,6,5,4,,2,2,
{4}1-5[8:1],7-3[8:1],8-2[8:1],5-7[8:1],
{8}3-5[8:1],,2-6b[8:1],,4,3,3,3,
{16}1bx/2bx,,8,,17,,6,,78,,1,8h[16:3],,,2,,
{8}B3,B7,E2,E6,Chf[4:1],,8,8,
{16}7x,,6,,53,,4,,56,,4,5h[16:3],,,3,,
{8}2-5[8:1],,6-1b[8:1],,3,3,4,5,
{8}E1,E8,E7,E6,E5,,6,6,
{8}8,1,2,3,4,,7,7,
{4}2-6[8:1],12,7-3[8:1],87,
{4}1>5[4:1],5<1b[4:1],1w5[8:1],B4/B5f/B6,
{8}8/3h[1:1],,,,E1,E8,C,E6,
{4}E5,C,E1h[4:1],,
{8}6h[4:1],,8,,E1,E2,E3,E4,
{8}7,7,5,5,6,6,4,4,
{16}5x,,,2x/4x,,,1x/8x,,2/7p3[8:1]*q3[8:1],,,,Cf,,,,
{16}1x,8,1,8,1x,8,1,8,2x,8,2,8x,2,8,2x,8,
{16}1x,7,1,7x,1,7,1x,7,2x,6,2,6,2x,6,2x,6,
{16}3x,5,3,5,3x,5,3,5,4x,6,4,6x,4,6,4x,6,
{8}E5,E7,E1,E3,E6h[4:1],,E2f,,
{16}7b-4[8:1]/8b-3[8:1],,,,78,,,,5/2h[16:3],,,4,3h[8:1],,6,,
{16}7h[16:3],,,5h[16:3],,,8x,,8x,,,,18,,6,,
{16}3/4pp4b[4:1]*qq4b[4:1],,,,4,,,,,,,7,8,,78,,
{8}1,1,28,28,3/7-3[8:1]*-4[8:1],,7,,
{8}2b/1b,,3/8<5b[8:1],,2,1,8>3b[8:1],,
{8}6,7<4b[8:1],8v3b[8:1],,,,26,26,
{8}8b/7b,,8/1>4b[8:1],,7,8,1<6b[8:1],,
{8}3,2,1,7,7,8,6,1,
{4}5-7[8:1],4,3-1[8:1],4,
{8}6,6,56,4,3-8[8:1]/5-8[8:1],,3x/5x,,
{4}5qq5[4:1]*pp6[4:1],5w1b[8:1],,37,
{8}4s8[4:1]/5z1[4:1],,,,,,7,7,
{8}E1,E2,E3,E4,E5h[2:1],,,,
{8}D1,D8,D7,D6,D5hf[4:1],,,,
{16}8,7,8,,1,,1,,4,2,4,2,5,3,5,3,
{4}6-1[8:1],6/2-5[8:1],2/7w3[8:1]b,Cf,
{16}
{16}16,,,,38,,,,6/2h[16:3],,,5,,,5,,
{16}3/7h[2:1],,,,8x,1x,2x,3x,4bx,,,5bx/6bx,,,4bx/5bx,,
{16}3V17[4:1],,,,7V13[4:1],,,,3,,,6,,,{32}A8,E8,B7,B6,
{32}E6,,,,,E4,B3,B2,E2,,,,,B6,B5,E5,{16}4x-8[8:1],3,4,3,4,,,,
{16}1-3[8:1]/8-6[8:1],,,,8z4b[4:1]/1s5b[4:1],,,,,,,,,,27,,
{16}7/2h[16:3],,,4h[16:3],,,1x,,1x,,,,78,,6,,
{16}7-5[8:1]/5-1[8:1],,,,75,,,,2,4,,4,3,,3,,
{8}8,8,71,71,6/2-6[8:1]*-5[8:1],,2,,
{8}7b/8b,,6/1>4b[8:1],,7,8,1<6b[8:1],,
{8}3,2>5b[8:1],1v6b[8:1],,,,73,73,
{8}1b/2b,,1/8<5b[8:1],,2,1,8>3b[8:1],,
{8}6,7,8,8,{16}1x,2,3,4,7x,6,5,4,
{8}2-5[8:1],,12,8,7-4b[8:1],,78,1,
{8}3-8[8:1],,43,5,6-1b[8:1],,65,4,
{4}3>8b[4:1],8<5[4:1],5>2b[4:1],2<7[4:1],
{4}7,5-1[4:1]*s1[4:1],,,
{8}6-1b[8:1],,56,4,3-8[8:1],,34,5,
{8}7-4b[8:1],,87,1,2-5[8:1],,21,8,
{4}7<4[4:1],4>1b[4:1],1<6[4:1],6>3b[4:1],
{4}3,1-5b[4:1]*s5b[4:1],,,
{16}3b/4b,,5,,46,,7,,78,,,16,,,25,,
{16}36,,4,,57,,8,,8/A3,,,2/E7,,,1/E6,,
{8}2x/4x,3,3h[8:1]/5h[8:1],,24,3,3h[8:1]/5h[8:1],,
{4}2>5[8:1]/6<1[8:1],2p6b[4:1]/6p2b[4:1],,,
{16}7b/8b,,1,,82,,3,,34,,,52,,,61,,
{8}72,8,13,4,4-1[8:1]/8-5[8:1],,,,
{8}2x/5x,6,7h[8:1]/1h[8:1],,25,6,7h[8:1]/1h[8:1],,
{16}3,,3,,24,,35,,46,,46,,4-1b[12:1],6,4,6,
{1},
{1},
E
