&title=遠野幻想物語 (MRM REMIX)
&artist=非可逆リズム (モリモリあつし)
&first=0.83
&des_5=喜报!我上w3啦!
&lv_5=14+
&des=喜报!我上w3啦!
&inote_5=(200){4},,,,{1}2x-8>1-5[8:13],
,7xpp8-5[2:3],
{2},4xv1[8:1],
{8}7x,{16}2x,8x,,2x,{8}8x,7,6,{4}3/5,
{8}2,1/2,7,7/8,{16}1x,2,3,4/5,6,7,{8}8,
2x-4[8:1],2,1,8,7x-5[8:1],7,8,1,
2h[4:1],{24}B3,E4,,{8}7h[16:5],{24}B6,E6,,{8}1bx,1bx,{4}1bx-4[8:1],
{1}1b-6-3-7-4[8:11],
{8}1x,,,2x,,,{4}3x,
{16}5xh[16:3],,,6xh[16:3],,,{8}7x,{16}4xh[16:3],,,3xh[16:3],,,{8}2x,
{4}1x-3[8:1]*-4[8:1],1x-7[8:1]*-6[8:1],{2}1xw5[8:1],
{4}3bx/7bx,{16}2,1,2,1,{8}2-6[8:1],3,{4}4,
{8}5>2[8:1],7,5,8b-5[8:1],,8b-3[8:1],,8b,
{16}4,5,6,7,{4}8/3,{8}1x/2x,4,1x/2x,4,
{16}1/2,8,7,6,5/4,3,2,1,{4}8/7-3[8:1],4/7-5[8:1],
1b/7b,{16}3,4,3,4,{8}3-7[8:1],2,{4}1,
{8}8>3[8:1],6,8,5b-8[8:1],,5b-2[8:1],,5b,
{16}1,8,7,6,{4}5/1-5[8:1],{8}1/7x-4[8:1],8,7x/1x,8,
1b,2b,3b,4b,{2}5bh[4:1],
{4}7x/1x-5[8:1],8x-4[8:1]/1x-3[8:1],8x/1x,7b,
2x/8x-4[8:1],1x-5[8:1]/8x-6[8:1],1x/8x,2b,
8x-4[8:1]/1x-3[8:1],1b/8b,1x-5[8:1]/8x-6[8:1],8b/1b,
8x/2x,E7/B6/E5/E6/E4/B4,7x/1x,E3/B3/E5/E4/E6/B5,
{8}8/2xh[4:1],8,7,6,3/5xh[4:1],3,2,1,
8-4[8:1],7-3[8:1],8,7,,2b/E5/B5/E6,,8b/E3/B2/E2,
{16}7x,6,5,4,1x-6-8[4:1],2,3,4,{2}5x-2-4[4:1],
{16}1,8,7,6,5/3,2,1,8,{4}7-5[8:1],7>2b[8:1],
{1}E1f/7b-4<5-1[8:15],
{2},,2bxh[1:1],
{8}E1,E8,E7,B5fh[4:1]/E5fh[2:1]/A5fh[4:3]/E6fh[1:1],
,,,,,,,,{4}1x-5[6:1],
{8}1/8,7,{4}6-2[8:1],{8}5/6,4,
{4}3>8[4:1],8<5[4:1],5>2[4:1],1,
7h[2:1],{8}8,8,1,2,3,5bh[1:1],
,E4f/B3/A3,,E7f/A6/B6,,E2f/B1/B2,,,{4}8x-4[6:1],
{8}8/1,2,{4}3-7[8:1],{8}4/3,5,
{4}6<1[4:1],1>4[4:1],4<7[4:1],8,
2h[2:1],{8}1,1,8,7,6,5/3,
{16},,2,1,{8}2,{16}3,4,{8}3,{16}2,8,{8}2,3/7,
6-2[8:1],6,5,4,3-7[8:1],3,2,1,
8-4[8:1],8,3,2,1-5[8:1],1,6,7,
{16}8,4,7,3,6,2,5,1,{8}4x,{24}1x,2,3,{8}4x/8x,{24}7x,6,5,
{16}4x/8x,,,2x/5x,,,{8}3x/7x,{16},6x/8x,,,{8}3x/4x,2x/5x,
{6}6x/1x-6[8:1],{12}5,1bx,,4<8[4:1],{6}8,{12}1x,2x,3x,4x,
{4}5xV36-2[2:1],1bx,8,7bx-3[8:1],
{6}1/7,{12}2,2bx,,1/4,5,6,7,8x/2bxqq6[4:3],3,4,
{4}5x,5bx,5bx,5b-3[8:1],
{6}5/7-5[8:1],{12}2,7bx,,1,{6}4,{12}8,1,2,3,
{4}4x/7x-5-8-4[2:1],3bx,2,1bx-6[8:1],
5x-3[8:1],8b,{12}7x,8x,1x,2xz6[2:1],3x,4xh[2:1],
,,,,,,{4}E3h[12:1]/B2h[6:1]/B3h[4:1],8bx,
{6}1/7-4[8:1],{12}2,7bx,,1,{6}6x,{12}5x/8x,1/6,2/7,3/8,
{4}1x/4x-2-5-1[2:1],6bx,7,8bx-4[8:1],
{6}6/8,{12}5,5bx,,6/3,2,1,8,5xqq1[4:3],6,7,
{4}8x,8bx,8bx,8b-6[8:1],
{6}8-4[8:1],{12}2,8bx,,1,8x,7x,6x,5x/1b-3[8:1],,,{6}1-5[8:1],
{12}7,1bx,,8,1x,2x,3x,4x/8b,,,2x,
4,3,7b,5,6,1x,3,2,8b,6,7,
{4}1b-3[8:1]*-4[8:1],1b-6[8:1]*-7[8:1],{2}1bw5b[8:1],
{8}B8/B7/E8/B2/B3/E3f,{16},,,,6x,5,{8}7,{16}3x,4,{8}2,8,
1-5[8:1],1,8,7,6-1[8:1],6,4,3,
2x/8x,{16}3,4,{8}3,8,7/5,6,4/2,3,
1,2/8,3/7,4/6,{4}5bw1[8:1],5b,
{8}3/7,{16}6,5,{8}6x,1,2/6,{16}3,4,{8}3x,8,
3/7-4[8:1],{16}2x,2x,{8}7x-1-5[3:1],1,7x,2,3x,3,
{16}4,6,4,6,3,7,3,7,{8}2x,{24}8x,7,6,{8}5x/1x,{24}7x,6,5,
{4}4xv7[8:1]/8x-3[8:1],4b/8b,{16}1x-5[8:1],6x,3x,7x,{4}1bw5b[8:1],
{8}Cf,{16},,,,2x,5,{8}3,{16}7x,4,{8}6,2,
8-4[8:1],7-5[8:1],8,7,1-5b[8:1],2-4b[8:1],1,2,
8,{16}8,7,{8}6-1[8:1],3,6>4[8:1],2,6,1,
8,7/1,6/2,5/3,{4}4bw8[8:1],4b,
{8}6/2,{16}3,4,{8}3,8/2,7/3,{16}6,5,{8}6,1/7,
2/6,{16}2x/5h[8:3],3,{8}4,{16}6x,7,8,1,2,3,{4}4b/7b,
{16}6,5,6,5,7,4,7,4,{8}8x,{24}2x,3,4,{8}5x/8x,{24}2x,3,4,
{4}5x/1x<6[8:1],3x/1x>4[8:1],{16}1x/5x,6x,7x,8x,{4}1x-6[8:1]/5xv2b[8:1],
{1}5bx/Cf/1bx>8-4[8:19],
{8},,,,,,,2x,
{1}2xh[1:1],
{24},,,,,,4x,3x,5x,2x,{48},{16}6x,7x,,,8x,,,{8}1x,
2-5[6:1],,,7-2[6:1],,,{4}4-7[6:1],
{8},1-4[6:1],,,{4}8,7,
6h[4:1],{8}3,3h[4:1],,1,{4}1h[4:1],
4b>2[8:1],4b<6[8:1],{2}4bw8[8:1],
{4}2b/6b,{16}3,4,3,4,{8}3-7[8:1],2,{4}1,
{8}8>3[8:1],6,8,5-8[8:1],,5b-2[8:1],,5b,
1,1,{16}8x-4[8:1],7,6,5,{8}8x>3[8:1],7,8x,7,
{16}6,4,6,4,7,3,7,3,8x,8x,,1x,{8}7x,4x/6x,
{16}2,1,2,1,{8}2,{16}7,8,7,8,{8}7,{16}1,8,1,8,
2,4,3,4,{8}3,6b,7b,8b,1b,2b,
3b,{16}6x,5,{8}7,{16}3,4,{8}2,1,7/8,6,
{16}4,3,6,7,4,3,6,7,2,8,,7,{8}1,6,
2/4,1,8,5/7,8-4[8:1],1-5b[8:1],8bx,{24}1bx,Cf,
E
