&title=Turn around
&artist=Clean Tears
&first=0
&des=H2g feat. Ri6n
&lv_5=13+
&inote_5=(156)
{1}
,
{1}
1bs5[8:5]*V73[8:4],
{16}
4h[8:1],,,,4h[8:1],,,,4h[8:1],,,,4h[8:1],,E8,,
{16}
4h[8:1],,,,4h[8:1],,,,4h[8:1],,,,4h[8:1],,E7,,
{16}
4h[8:1],,,,4h[8:1],,,,4h[8:1],,,,4h[8:1],,E6,,
{16}
4h[8:1],,,,4h[8:1],,,,4h[8:1],,,,4h[8:1],,5,5,
{16}
4h[8:1],,,,4h[8:1]/E1,,,,4h[8:1]/E8,,,,4h[8:1]/E7,,5,5,
{16}
3h[8:1],,,,3h[8:1]/A8,,,,3h[8:1]/A7,,,,3h[8:1]/A6,,5,5,
{16}
2h[8:1],,,,2h[8:1]/E8,,,,2h[8:1]/E7,,,,2h[8:1]/E6,,4,4,
{16}
1h[8:1],,,,1h[8:1]/A7,,,,1h[8:1]/A6,,,,1h[8:1]/A5,,4,4,
{12}
8b^3[8:3]*^5[8:3],,,,,,,,,2x,3,4,
{12}
6x,7,8,1x,2,3,5x,6,7,8x,1,2,
{12}
5x,6,7,8/1x,2,3,4/6x,7,8,1/2x,3,4,
{16}
1-5b[8:1]/5x,1,,,7,7,,,5xw1b[8:1],,,,B5f/E6/E5/B4/B6/A6/A4,,,,
{16}
2x,4,,3,5,,4-8^3[8:2],5,,6,,6,,7h[16:3],,,
{16}
2x-5[8:1],,5-1[8:1],5,,,,,6x^1[8:1],,2,2,,4,,,
{16}
3,5,,4,6,,5-1-4[8:2],6,,7,,7,,8h[16:3],,,
{16}
3-6[8:1],,6-2[8:1],6,,,,,5^8[8:1],,1,1,,3,,,
{16}
4,6,,5,7,,6-2-4[8:2],7,,8,,8,,1h[16:3],,,
{16}
5-8[8:1],,8-3[8:1],8,,,,,7^4[8:1],,1,1,,3,,,
{16}
2,4,,3,5,,4v1-3[8:2],5,,7,,6,,5h[16:3],,,
{16}
2-6[8:1],,6-2[8:1],6,,,,,7,,1,1,,5,5,,
{16}
7,5,,6,4,,5-1^6[8:2],4,,3,,3,,2h[16:3],,,
{16}
7x-4[8:1],,4-8[8:1],4,,,,,3x^8[8:1],,7,7,,5,,,
{16}
6,4,,5,3,,4-8-5[8:2],3,,2,,2,,1h[16:3],,,
{16}
6-3[8:1],,3-7[8:1],3,,,,,4^1[8:1],,8,8,,6,,,
{16}
5,3,,4,2,,3-7-5[8:2],2,,1,,1,,8h[16:3],,,
{16}
4-1[8:1],,1-6[8:1],1,,,,,2^5[8:1],,8,8,,6,,,
{16}
7x,4,,8,1,,6x,3,5x,2,,8,1,,7x,2,
{24}
8x,7,6,3x,2,1,7x,6,5,2x,1,8,
{24}
6x,5,4,3,2,1,8b/E4f/E3/B3/A3,,,,,,
{16}
7x-5[8:1],5,,5,7,,3x,3,8x-4[8:1],4,,4,8,,3x,3,
{16}
7x-5[8:1],5,,5,7,,3x,3,8x-4[8:1]*-5[8:1],,7x/1x,,8x,,,,
{16}
2x-4[8:1],4,,4,2,,6x,6,1x-5[8:1],5,,5,1,,6x,6,
{16}
2x-4[8:1],4,,4,2,,6x,6,1x-5[8:1]*-4[8:1],,2x/8x,,1x,,,,
{16}
7x-5[8:1],5,,5,7,,4x,4,1x-3[8:1],3,,3,1,,4x,4,
{16}
7x-5[8:1],5,,5,7,,4x,4,8xw4[8:1],,1x/7x,,8x,,,,
{16}
2x-4[8:1],4,,4,2,,5x,5,8x-6[8:1],6,,6,8,,5x,5,
{16}
2x-4[8:1],4,,4,2,,5x,5,1x,,3x/7x,,1b-7[8:1]/5b,,,,
{16}
1x-3[8:1],6,,5,1x-7[8:1],,6x,6,1x-3[8:1],5,,4,1x-7[8:1],,5x,5,
{16}
1x-3[8:1],6,,5,1x,,6x,6,
{32}
4x,3,2,1,8,7,6,5,8b-2[8:1],,,,,,,,
{16}
8x-6[8:1],3,,4,8x-2[8:1],,3x,3,8x-6[8:1],4,,5,8x-2[8:1],,4x,4,
{16}
8x-6[8:1],3,,4,8x,,3x,3,
{32}
5x,6,7,8,1,2,3,4,1b-5[8:1],,,,,,,,
{16}
1x-3[8:1],4,,6,1x-5[8:1],,5x,5,1x-3[8:1],4,,6,1x-5[8:1],,5x,5,
{16}
1x-3[8:1],4,,6,1x,,5x,5,
{32}
4x,3,2,1,8,7,6,5,8b,,,,,,,,
{16}
2x,8,4,7,3,6,2,5,3x,4,2,5,1,6,8,7,
{24}
1x,2,3,6x,7,8,2x,3,4,7x,8,1,
{32}
3x,4,5,6,7,8,1,2,3b/E7f/A7/A6/B6/B7,,,,,,,,
{8}
6xv4[8:1]/2xv4[8:1],,2/6,,2x^5[8:1]/8x^5[8:1],,2/8,,
{8}
1xp4[8:1]/7x-4[8:1],,1/7,,5xV71[16:3]/7xV13[16:3],,5/7,,
{8}
2x-7[8:1]/4x-1[8:1],,2/4,,8x^3[8:1]/6x^3[8:1],,8x-5[8:1]*z4[8:1]/6,,
{8}
8x,,6x-8b[8:1],8x-4b[8:1],4x-2b[8:1],,1b,,
{8}
4x/5x,3,1x/2,8,7/6x,5,3x/4,2,
{12}
1/8x,7,6,5/4x,3,2,1/4x,5,6,7/8x,1,2,
{16}
3/4x,5,6,7,8/1x,2,3,4,5/6x,7,8,1,2b/3b,A5/A4/D5f,E5f,
E
