&title=きみがいちばんばんばんざ~い!
&artist=涼
&first=0
&des=パピピポ!我是LPP不是LSP 开白谱是因为这歌在近期有人写过一张了,且该曲的人声部分非常具有特色,采vocal多的话可能会显得有点塞,所以给个白谱吧。 谱面neta很多,包括但不限于歌词押,动作押,角色及背景区分星星颜色,配合pv游玩效果更佳。 前半常用的短hold是想体现一下特殊的人声音节,如だん、ちゅう、きゃあ等长音或拗长音 以及一些双音节的连唱。(也许有点多此一举) 以下是一些小巧思 75combo处想押pv的渐大标题 85combo处及之后的镜像配置的3连hold想体现出此时人声的力量,感觉这个配置打起来应该挺有力气 106combo第一次出现的短touchhold押特殊人声,共出现四次,前两次情感较平淡带有轻微疑问,后两次反之,因而加了烟花效果。 131combo处进新段落出现的touch为pv中角色的动作押,为防止手感爆炸有所取舍,跟随pv起舞吧! 222combo处的touch押pv中的中心转场效果,烟花特效押重音。 237combo处押歌词南北东西。 262combo处交互为鼓点节奏,保护为人声节奏,后八下重鼓点采用短hold。 进入副歌前的3下人声押pv中的俄罗斯方块消除效果,因取4下touch就不是touchgroup手感必然炸裂,在这里有所取舍。 进入副歌部分, 第一组人声的はぴぴぽ差点就干了官谱3p的开头,不过好在忍住了( 5个一组的touchgroup押歌词ぽい(布) 355combo处的C区touch带烟花为画面押。 第二组人声的星星与touch押歌词じゃんけんぽ 445combo处的5个touch押澡堂中五个女主, 同时情绪达到至高点,使用绝赞wifi(圣光!) 471combo处的烟花touchgroup押pv中的烟花 结尾的纯音部分两段的鼓点有所不同,因此所用配置也有所变化。 最后的星星押标题“lovepical poppy” (我是LPP!不是LSP!) 祝大家情人节快乐,也希望大家玩得开心多多给出意见,被创到了也请不要骂我喵〜( ̄▽ ̄〜)。 有机会也可以玩一玩原作,是非常有点子有意思的萌作,尤其是妹线(有妹抱妹吻还有带妹玩妹调) 非常感谢日色哥带风哥和AIRYちゃん
&lv_6=13+
&inote_6=(162)
,
{8}
B3,B6,B2,B7,,1x,8x,,B3,B6,B2,B7,,
{16}
1x,2x,3xh[8:1],,,,
7h,,7h,,7h,,3x,5x,,5x,3,,2h[8:1],,,,
7h,,7h,,7h,,7,8,,8x,7xh[16:1],,1h[8:1],,8h[8:1],,
2b,,1,,2,,2,1,,1,2,,2h[4:1],,,,
5,,6,,7,,8,,1h[8:1],,3h[8:1],,5h[8:1],,7h[8:1],,
2h,,2h,,2h,,6x,4x,,4x,6,,7h[8:1],,,,
2h,,2h,,2h,,2,1,,1x,2xh[16:1],,8h[8:1],,1h[8:1],,
8xbh[8:1],,1xbh[8:1],,7,,7,8,,8,7,,7h[4:1],,,,
4,,2,,8,,6,,2xb/A5,,B5,,2xb/C,,B1,,
3bp1[8:3],,,,,,,,,,,,5bx,,4bx,,7h[8:1],,,7h[8:1],,,7h[8:1]/3p6b[4:1],,,,
,,,,,,7bx,8,7,8,7,,2h,,2h,,2h,,8xb,1x,8xb,,B3,,B2,,B7,,B6,,,,Ch[8:1],,,,,,
6bq8[8:3],,,,,,,,,,,,4bx,,5bx,,2h[8:1],,,2h[8:1],,,2h[8:1]/6q3[4:1],,,,
,,,,,,2bx,1,2,1,2,,7h,,7h,,7h,,1xb,8x,1bx,,B6,,B7,,B2,,B3,,,,Ch[8:1],,,,,,
3bh[8:1],,,,6xh[8:1]/E6,,,,2xh[8:1]/C,,E7,,C,,3,,3h[8:3],,1,,2,,1,,1h[8:3],,4,,3,,2,,8/2h[8:1],,8,,C,,12,,1/2h[8:1],,C,,2,1,2,,3xh[8:1]/8,,8,,7xh[8:1]/2,,C,,3xh[8:1],,Chf[8:1],,3xh[8:1],,,,
6bh[8:1],,,,4xh[8:1]/E4,,,,5xh[8:1]/E6,,C,,E4,,6,,6h[8:3],,8,,7,,8,,8h[8:3],,5,,6,,7,,1,8,1,8,C,,1,8,1,8,C,,7h,,7h,,7h,,2xh,,7,,3h[8:1],,,,Chf[8:1],,,,,,
{24}
2,,2,,2,,8-4b[8:1],,,,1,,8xb,,,,,,2,,,2,,,
6,,6,,6,,4-8b[8:1],,5,,3,,4xbh,,,,,,
{16}
3,,3,,6/Cf,,6xh[16:1],,4x,,56,,6xh[16:1],,4x,,7,,3,,2/Cf,,2,,2,,5,3,,,,,
6,,6,,4bx,5x,4x,5bx,4h[8:1],,C,,8bx,1x,8x,1bx,8h[8:1],,C,,2bx,3x,2x,3bx,2h[8:1],,C,,7bx,6x,7x,6bx,7h[8:1],,C,,5x,4x,5,4x,5x,4,5x,4x,5h,4xh,5xh,4h,5xbh,4h,5xbh,4h,5bh[2:1],,,,,,,,,,
B3/E4/B4,,B6/E6/B5,,B6/E6/B5,,1b-3[8:1],,7,,1,,8,8,1xb-5[8:1],8,1,,8x-6-4b[16:3]/1x,,6x,,
8b-2-4b[16:3],,2bx,,8b,,6bx,,B8/E8/B7f/E7/B6,,,,B1/E2/B2f/E3/B3,,,,
7^4[8:1],,7,,4,,3,,3^8[8:1],,3,,4,,5,,5b,,,,4bqq5[4:1]/5bpp4[4:1],,,,E5,,,,,,,,
8b-6[8:1],,2,,8,,1,1,8xb-4[8:1],1,8,,2x-6[8:1],,3x,,7b-3[8:1]/B2,,,,1b-6[8:1]*-4[8:1]/B7,,,,1bw5[8:1],,,,Cf,,,,
3x^8[8:1],,5,,4,,5,,6x^1[8:1],,4,,5,,4,,3h[8:1],,6x,6x,2h[8:1],,6x,6x,3h[8:1],,
7,,7h[8:1],,2,,1b-3[8:1],,7,,1,,8,8,1xb-5[8:1],8,1,,8x^7-5^6-8b[4:1]/1x,,6x,,4b^3-1^2-4b[4:1],,1bx,,,,5bx,,B8/E8/B7f/E7/B6,,,,B1/E2/B2f/E3/B3,,,,
7^4b[8:1],,7,,4,,3,,3^8b[8:1],,3,,4,,5,,6b-3-6[4:1],,6x,,2b-7-2[4:1],,7x,,,,3x,,6x,,6x,,
8b-6[8:1],,2,,8,,1,1,8xb-4[8:1],1,8,,2x-6[8:1],,3x,,7b-3[8:1]/B2,,,,1b>5[8:1]*<5[8:1]/B7,,,,1bw5b[8:1],,,,B8/B2/Cf/B6/B4,,,,
3xh[8:1]/7xh[8:1],,,,2xh[8:1]/6xh[8:1],,,,15,,37,,26,,48,,2b,6,8,4,2b,6b,8b,4b,2bh[8:1],,,,E8f/B7/B8,,,,
35,,6,,3x/5x,,3,4,,4,3,,5x/3x,,,,
46,,7,,1x/8x,,2,1,,1,2,2,8bx,,8,,
71,,2,,7x/1x,,7,8,,8,7,,7x/1x,,,,
5,,6,,7,,8,,1h[8:1],,3h[8:1],,5h[8:1],,7h[8:1],,1bh[8:1],,,,
5x/3x,,3,4,3pp1[4:1],4,3,,7x/3x,,,,
6x,,7,,8x/1x,,2,1,,1,2,2,8bx,,8,,
71,,2,,1x/7x,,7,8,7pp5[4:1],8,7,,3x/7x,,,,
4,,2,,28,,46,,8b/2b,,2b/8b,,4b-2^1v4v7^6-4b[4:5]/6b,,4b/6b,,7xbpp8-5[8:7],,
