&title=ゼンマイ恋時計(T.E.B Summer Mix)
&artist=A-One
&first=1.46
&des=KoishiKnight
&freemsg=A-One
&wholebpm=168
&first_1=
&first_2=
&first_3=
&first_4=
&first_5=1.46
&amsg_first=
&tap_ofs=
&hold_ofs=
&slide_ofs=
&break_ofs=
&lv_5=12+
&inote_1=
&inote_2=
&inote_3=
&inote_4=
&inote_5=(168)
{8}
2,4,3,5,4,6,3,7,2p8[8:3],,,8q5[4:1],,,,,
7,5,6,4,5,3,6,2,7q1[8:3],,,1p4[4:1],,,3,,
2,5,3,6,4,7,3,8,2p8[8:3],,,8V25[4:1],,,,,
7,4,6,3,5,2,6,1,7q1[8:3],,,1V74[4:1],,,3,,
{8}
2/5,3,4/7,6,1/5,3,4/8,6,1h[4:1]/5h[4:1],,,7h[8:3]/3h[8:3],,,,,
4/7,6,2/5,3,4/8,6,1/5,3,4h[4:1]/8h[4:1],,,7h[4:1]/3h[4:1],,,2h[8:1]/6h[8:1],,
1/4,2,8/5,7,6/2,4,3/7,5,4h[4:1]/8h[4:1],,,2h[8:3]/6h[8:3],,,,,
8/5,7,1/4,2,3/7,5,2/6,4,1h[4:1]/5h[4:1],,,3bqq4[4:1]/7bqq8[4:1],,,,,
{16}3h[8:1],,8,,6h[8:1],,1,,2/5,,3,4,,6,5,,4/8,3/7,2/6,,2/6,,,,4/7,,6,5,,3,4,,6b,,8-4[8:1],7,,1,8,,3b,,1-5[8:1],2,,8,1,,8h[8:1],,
{32}4,3/7,2/6,1/5,{16}4/8,,,,2^5[8:1]/6^1[8:1],,,,2/6,,,,4h[8:1],,8,8,3h[8:1],,7,7,2,,6,5,,3,4,,1/5,2/6,3/7,,3/7,,,,8,,1-6[8:1],7,,2,1,,
4-1[8:1],,,,4/8,,8^3[8:1]*^5[8:1],,,,8w4[8:1],,,,8,,,,4b/7b,,2b/5b,,8b/3b,,
{8}1b/6b,4/2,5/3,4V28[8:1]/6v8[8:1],4/6,,,5V71[8:1]/3v1[8:1],3/5,,,7,
7-5[8:1],,7/8-4[8:1],,8/1-5[8:1],,1/2-4[8:1],,2/1,,2/5,3,4/7,6,5,4p2[8:5],
{8}8,,7,6,,7,6,,7^4[8:1],,,1^6[8:1],1,,,2,2-4[8:1],,
2/1-5[8:1],,1/8-4[8:1],,8/7-5[8:1],,7/8,,1/6,7,8/3,2,1,8qq4[4:1]*pp4[4:1],,
{8},,,7/5,4/6,3/5,2v8[8:1]/4q8[8:1],2/4,,,5p1[8:1]/7v1[8:1],5/7,,,
3,3-8[8:1],,3/7-4[8:1],,7/2^5[8:1],,2/6^1[8:1],,6/3,,1/4,3,5/8,7,6,5q7[8:5],
{8}1,,2,3,,2,3,,2^5[8:1],,,8^3[8:1],8,,,
7,7-4[8:1],,3-8[8:1]/7,,
3/6^1[8:1],,6/2^5[8:1],,7/2,,4/6,5,2/8,1,3/7,1/5,,
{16}6,,3,,4,,2,5,2,,7,4,7,,
{8}2/4,3,4,3/5,,6/8,7,8,1/3,2,4/5,6,3,7,2,8,
4/6,5,2/4,3,,2/8,1,2,3^8[8:1]/7^4[8:1],,3q1[4:1]/7q5[4:1],,3/7,,,,
{8}1/3,2,1,2/8,,5/7,6,5,2/4,3,1/8,7,2,6,3,5,
{8}4-1[8:1],4,8-5[8:1],8,2-7[8:1],2,6-3[8:1],6,
1-5[8:1],1,7-3[8:1],7,4-8[8:1],4,6,6,
{8}7,1/6,2,3/8,7,{16}1,1,{8}1,5/2,4,3,4/7,6/2,5,3,4/8,2/6,3,{16}7,7,{8}7,2/5,4,3,4/7,1/5,4,2,3/7,4/8,1^6[8:1]/5^2[8:1],,1/5,,
{8}7,{16}4,4,{8}4,1,2v5[8:1]/8v5[8:1],,,,
7^4[8:1],7,1-6[8:1],1,3^8[8:1],3,5-2[8:1],5,7,,1,8/2,,5,4/6,,,3/7,6,5,4b^1[8:1]/8b^5[8:1],,8b/4b,,
{8}2,8/3,7,1/6,2,{16}8,8,{8}8,4/7,5,6,5/2,7/3,4,6,1/5,7/3,6,{16}2,2,{8}2,4/7,5,6,5/2,4/8,5,7,2/6,1/5,8^3[8:1]/4^7[8:1],,8/4,,
{8}2,{16}5,5,{8}5,8,1v4[8:1]/7v4[8:1],,,,2^5[8:1],2,8-3[8:1],8,6^1[8:1],6,4-7[8:1],4,2,,8,1/7,,4,5/3,,,
2/6,3,4,1b^4[8:1]/5b^8[8:1],,1b/5b,,1^4[4:1],,4q8[4:1],,8q5[4:1],,5<1[4:1],,1,,,,2bv4[8:1]/6bv8[8:1],2b/6b,,,
{16}7h[8:1],,4,,2h[8:1],,5,,1/6,,7,8,,2,1,,1/5,2/6,3/7,,3/7,,,,8/3,,2,1,,7,8,,2b,,5-1[8:1],4,,6,5,,7b,,4-8[8:1],5,,3,4,,1h[8:1],,
{32}5,2/6,3/7,4/8,{16}1/5,,,,3^8[8:1]/7^4[8:1],,,,3/7,,,,5h[8:1],,1,1,6h[8:1],,2,2,7,,3,4,,6,5,,4/8,3/7,2/6,,2/6,,,,1,,8-3[8:1],2,,7,8,,
5-8[8:1],,,,5/1,,1^4[8:1]*^6[8:1],,,,1w5[8:1],,,,1,,,,3b/7b,,1b/5b,,2b/6b,,
{8}4bqq7[1:4]/8bqq3[1:4
],
{1},,,,,,,E
