&title=R
&artist=Roselia
&first=-0.04
&des=柊
&lv_5=14
&inote_1=
&inote_5=(188)
{4},,{128},,,,,,,,,,,,,,,,,,,,,,,,,,,,,,,,,,,,,,,,,,,,,,,,,,,,,,,,,,,,,,,,,,,,,,,,,,,,,,,,,
{8}2pp8[2:1]/7,,E7/B7/B6,,8>6[2:1],,E8/B7/B8,,6qq2[2:1],,A7/D8/E8,,1,,C,,
{4}3/6,D6/A5/E6/A4/E4/D4,2-5[8:1]/7,{8}2/8,6-1[8:1],,6/2,2-6[8:1],2,2-4[8:1]/8-4[8:1],,2/8,
{8},5b/1b-5[8:1],5b-1[8:1]/1b,6,7,8,8,2,4/6,3b/7b,3b/7b,1<6[8:1]*>4[8:1],,1-5[8:1],,1,,
{8}4b-6[8:1]/6b,4b/6b-2[8:1],E7,B7,B8,E1,7x,4,7b/3b,7b/3b,,2/6,2v5[8:1]/6-1[8:1],,2/6,,
{8}4b>8[4:1]/8b<4pp2[1:1],,,,,,,,2b<5[8:3],,,,,,4b<7[8:1]/8b>3[8:1],,4bpp8<3[8:9]/8bpp4>7[8:9],
{2},,,{8},7bv4[8:1]/1bv4[8:1],,7b>4qq7[8:9]/1b<4pp1[8:9],
{8},,,,,,,,,,,,,2b-6[8:1]/8b-4[8:1],,2b/8b,,B6/B5/E6/B3/B2/E3,,1/7,,8bqq5[4:3],,8b/2b,2,3,4,5<8[4:1],,1qq6[2:1]*>4[8:1],,1,,
{8}E5,,E3,,2/7,,3/5,,4h[8:1]/6h[8:1],,7h[8:1]/5h[8:1],,7h[8:1]/1h[8:1],,
{16}7,6,5,4/8,7,6,{16}5,4,{8}8,5-8[8:1]/3q8[8:1],,3/5,,{16}1,2,3,4/8,1,2,{16}3,4,{8}1,3/5,2/6,{16}7,1,6,8,6,5,6,4,7,3,8,2,1,,{8}1-5[8:1],,8/1,6,{16}7,4,8,3,1,2,1,2,1bx-3[8:1],,,,{8}1bx-7[8:1],5,1bx>4[8:1],,1bx<6[8:1],5,1bx>1>6<4[16:13],
{2},{8}6bx,,,{32},,,5,6,7,8,1,2,3,4,5,6,7,8,1,2,3,4,5,6,7,8,1,2,3,4,5,6,7,8,1,2,3,4,5,6,7,8,1,2,3,4,5,6,7,8,1,2,3,4,5,6,7,8,1,2,3,4,5,6,7,8,1,2,3,4,5
,6,7,8,1,2,3,4,5,6,7,8,1,2,3,4,5,6,7,8,1,2,3,4,5,6,7,8,1,2,3,4,5,6,7,8,1,2,3,4,5,6,7,8,1,2,3,4,5,6,7,8,1,2,3,4,5,6,7,8,1,,,,,,,,,
{8}1-5[8:1]/7,6-4-8[4:1],1,6,3,2,1/7,,{16}3,4,1,,6,5,8,,{8}3,4,2h[8:1]/5h[8:1],,6,5,4/7,{16}2,1,4,,7,8,{8}5,,7-5[8:1],5-1[8:1],7/4,3,4-8[8:1],3,4/2h[8:1],,{16}7,1,7,,2/6,,5,3,5,,{32}2b,3,4,5,8b,7,6,5,
{8},1p5[4:1]*q5qq2[1:1],,,,,{2},,8p6<7-4-7[4:6]*-5>2[2:1],,,,3qq8[2:1]*<8[2:1]>8[4:4],,,,{8}2-6[8:1],,,{16}7,8,1,,{8}5,7h[8:1]/4,3,2/8h[8:1],3h[4:1],,6,5/2h[8:1],6,3b/7b,6b/5b,8b/1b,2b/Cf,,
{16},1,,1,2,3,4/6,,
6,7,8/2,3,4,,
8,7,6/1,2,3,,
8,7,6/3,2,1/5,,
5,6,7,8-4[8:1]/Cf,,,
{8},5-7[8:1],,1-3[8:1],,8-4[8:1],7,,1,2,2h[4:1]/6,5-8[8:1],,5/1,
{16}1,7,4,5,
{16},5,,5,6,7,8/2,,
2,3,4/6,7,8,,
2,3,4/6,7,8,,
4,3,2/7,6,5/1,,
1,2,3,4-8[8:1]/Cf,,,
{8},7-3[8:1],,1-5[8:1]/7,,1/4>1[8:1],,4<7[8:1],,4-8[8:1],,4,,{24}7,6,5,4,3,2,1,,,
{16}4,8,3,,6q3[4:1],2,5,,{8}6/3,4,4,{16}4,2,4,1,4,8,4,7,4,6,4,,
{8}3b-8[8:1]/4b-7[8:1],,3b/4b,,1xh[4:1],6x,6h[4:1],,2,3x/5xh[4:1],,4,2/6h[8:1],1,8x/2x,,
6b-1[8:1]/5b-2[8:1],,6b/5b,,8xh[4:1],3x,3h[4:1],,7,6x/4xh[4:1],,5,7/3h[8:1],8,1x/7x,,
1bx-5[8:1],,1bx/5bx,6,7,8,1-5[8:1],,
1bx/5bx-1[8:1],,5bx/1bx,2,3,4,5h[4:1]/1h[4:1]
,,
{8},,8/4,3,2h[8:1]/7,6,3/5-1[8:1],,6/5,7,{16}8,7,6,{24}1,2,3,4,5/1,8,7,6,5-7-1[8:1]/1-3-5[8:1],,,,,
{8},,,{8}4x/8xh[8:1],3,2/6h[8:1],1,{16}3,4,2,,6,5,7-4[8:1],,{8}2-4-8[4:1],7<4[8:1],2,7-3[8:1],,7,
{8},,1h[8:1],6,2/8,1h[8:1]/7,6,5/3,{16}4,5,4,,5,4,5,,{16}4,3,2,1,8/4,7,6,5,4/8,7,6,5,
{8}4h[8:1]/8,1,2/5,3,{16}6,5,7,,3,4,2-5[8:1],,{8}7-5-1[4:1],2>5[8:1],7,2-6[8:1],,2,
{8},,4h[8:1],7,3/5,4h[8:1]/6,7,8/2,{16}1,8,1,,8,1,8,,{16}1,2,3,4,5/1,6,7,8/4,5,6,7/8,,,,
{8}6h[8:3]/1h[8:1],,2h[4:1],,5,5<4[8:3]/3h[8:3],,,,,B3/B4,,E7/B6/B5,B2/B3/E4,
{8},3h[8:1]/8,7h[4:1],2,4,3/5,2/6,2-5>1-4[8:5]/6-1<5-8[8:5],
{8},,,,,,,,{8}2bx/8,2,2/6,2,2bx/4,2,2/8,2,6bx/2,6,6/4,6,6bxv4[8:1]/8bxv2[8:1],
{8},,,1-5[8:1],,1/5,,{16}6,7,8,1/5,6,7,8,1,2,3,4/8,7,6,5,4,3,2,1,8/4,,,,,,
{8}Cf/6xh[4:1],,,,2xh[4:1]/Cf,,,,8xh[4:1]/Cf/B2/B6,,,,B8/Cf/B4/2xh[4:1],
{8},,,5,6b-4[8:1]b/4,,6/3,2-5[8:1]b,,2/7,8-4[8:1]b,,8[8:1]b/1,3-5[8:1]b,,3/6,7-4[8:1]b,,7,1b,1-5[8:1]b,,1/8,6-4-8[4:1]b,,6,1-3[8:1]b,,1,7,6,5<8[8:1]b/1,2,3,4bx,,
{16}8x/4x,7,6,,8x/4,1,2,,4x>1[8:1],,7x,,4x/7,6,5,4,8,7,6,5,4,,3xb/7xb,,2b/8b,,4b/6b,,1b/8b,,
{4}2x/7x,C/B2/B3/B4,1x/6x,C/B7/B5/B6,3x/6x,E7/B6/E6/E4/B3/E3,4x/5x,B5/B4/E5/C,
{4}1bx/B1/C/B5,2x/8x,B2/B8/C/B4/B6,{8}8x,1h[4:1]/7h[8:1],,6,3/5h[8:1],4,5/7,6/8,1/7,
{8},1q3<6[8:4]/8p6>3[8:4]/Cf/B1/B2/B3/B4/B5/B6/B7/B8,,,,,,,,{16}2,3,4,5,1,2,3,4/8,1,2,3,8,7,6,5bq8[2:1]/4bqq8[2:1],,
{8},,,,,,,5<2[4:1],,2-8-5[4:1],3,3,4,4,3h,2xh[4:1]/5x,
{8},6x-4-8[4:1],1,2-4[8:1]/6,,2,7,7/2,3x,8/4,3x,
2/6,1x,2/5,3x,4bh[4:1]/8b,,
{8}7,6x,1/5,6x,
7/3,8x,7/4,6x,5/1,6x,7/3,{16}2,8,2,8,2,8,
{32}2b,3,4,5/8x,,,,,{8}B6/E7/B3/E3,{8}4,E8/B7,4/5,B4/B3,5,B1/E2,{16}5,4,,,{8}4/5,B3/E3,5,B1/E2,
{16}5,4,5,,{8},B3/E3/B6/E7,{8}5,E2/B2,5/4,B5/B6,4,B8/E8,{16}4,5,4,,{8}5/4,B6/E7,4,B8/E8,
{32}1x,,,,1x/7x,2,3,4,,,,{8}6-8[8:1],5/3,6,2-4[8:1],1,8/2,7<4[8:1],6,7/2,1-5[8:1],1,1/4-8[8:1],4,4/3h[8:1],
{16},,2,1,2,1,2,1,2,5b,4,5,4,5,4,7b,8,7,8,7,8,7,{32}8bx,1,2,3,4,5,6,7,8,1,2,3,4,5,6,7,8,1,2,3,4,5,6,{16},,7bp4[16:13]/8bpp4[16:13]>4[4:5],
{2},,,,4-7z3>3[1:2],,,,3pp1<1[1:2]*pp8[8:7],,,,
{8}1pp4[2:1],,B7,,B5,,Ch[2:1],,,,,{32}7xh[8:1]/1b,2,3,4,,,,,2x/8b,7,6,5,
{8},3b>8[8:1]/8b,3b/8b>3[8:1],7,7,6,6,5,5/1,4b-8[8:1]/8b,8b-6-1[4:1]/4b,1,1<5[4:1],4>1[8:1]
,,4,,8xb/4xb,4xb/8xb,E1,E5,E2,E6,E3,E7,1xb/5xb<8[16:3],{16}5xb/1xb,,1,2,3,4,1,2,3,4,5,6,7,8,{8}1b<5[8:3]/5b>1qq4[4:4],
{8},,,,,,,4pp2[4:2],,,,,,8xw4[8:1],,8x,
{8},,,,,,,
{16}4,5,3,6,4,5,3,6,4,5,3,6,{32}4b-7[8:1],3,2,1,{8},4/1,
{8}2,8-2[8:1]/3,7,6/8,5<8[8:1],8-6-2[4:1],1,2-8-4[4:1],3,4-6-1[8:2],3,2x>5[8:1]*<7[8:1],,2-5[8:1],,,
{16}6x,7x,8x,1x,6,7,8,1,5,6,7,8,1/2,3,4,5,8,7,6,5,4/1,8,7,6,5,4,3,2,1h[4:1]/5h[4:1],,
{8},,2/6,1,2/7,3>8[8:1],8-2-5[4:1],6,5>3-7[4:1],6,7-5-1[4:1],8,1x<6[8:1]*>4[8:1],,1x,,
{8},2h[16:1]/8h[16:1],2h[16:1]/8h[16:1],3h[16:1]/7h[16:1],3h[16:1]/7h[16:1],2h[16:1]/6h[16:1],2h[16:1]/6h[16:1],{16}1,7,1,7,5,7,3,6,4,6,3,6,2,6,2,6,{32}2,3,4,5,7,6,5,4,1,2,3,
{8}4h[8:1]/8-6[8:1],,8-2[8:1]/4,5,8/4-6[8:1],3,4/8,8,7-4[8:1],7,1-5[8:1],1,8x-4[8:1],8x,1,
{8}1h,2h/5,3h,4h/6,3h,{24}2h/7,6,5,2,3,4-2-8>4[2:1]/8-6-4<8[2:1],,
{8},,,,,,,,7-4[8:1]/2,,{32}7x/E3,B2,B1,E1,{8},2x-5[8:1]/6x,,{32}E7/2x,B7,B8,E1,{8},1x<6[8:1]/5x,,{64}A5/1x,D5,A4,D4,A3,D3,A2,,
{16},,1x<6[8:1],,,2,1-5[8:1],,{8}2,1x>4[8:1]/5x<8[8:1],,1x/5x,,1x/5x,4,3x/7x,2,1x>4[8:1]/6,{16},7,1,,{8}8,7/3,7/3,{24}7b/3b,2/6,1/5,
{8},5x-2[8:1]/1x,,{32}5x/E1,B8,B7,E7,{8},8x-3[8:1]/4x,,{32}E5/8x,B5,B6,E7,{8},7x<4[8:1]/3x,,{64}A3/7x,D3,A2,D2,A1,D1,A8,,{8},{32}4x/8x,5x/1x,6x/2x,3x/7x,{8},
{8},,3b/5b,2b-8-4[4:1]b/6b,,2b/6b,7b-5[8:1]b,,7b/3b,4b-8-6[4:1]b,,3b/4b,1b-5[8:1]b,,1b/8b,6b-8-4[4:1]b,,6b/Cf,2b,3b-1[8:1]b,,3b/4b,5b-7[8:1]b,,8b/5b,1b>4[8:1]b,,
{16}6,7,8,1/5,6,7,8,1,2,3/7,6,5,4<7[8:1]/1,,{16},2,4,,3,,{16}4>1[8:1],,5,,4/6,,7<4[8:1],,8,,7/3,2,1,8/3,2,1,8,7,6b/2b,,5b/1b,,7b/3b,,
{8},{16}2,3,4,5/1,2,3,{16}4,5,{8}1,4-1[8:1]/6p1[8:1],,6/4,,{16}8,7,6,5/1,8,7,{16}6,5,{8}8,6/4,7/3,{16}2,8,3,1,3,4,3,5,2,6,1,7,8,,{8}8-4[8:1],,1/8,1,{16}1,2,3/7,6,5/2,3,4-7[8:1]/7,,
{8},4,{16}1-5[8:1],1,,,{16}2-6[8:1]/1,3,4,,{8}2-4[8:1]/6,,2/8-4[8:1],{8},8/3p7[8:1],2,5q1[8:1],6,2q6[8:1],3,2/7,
{8}8x,1x-6[8:1],2x,1/3x>8[8:1],4x,5x-2[8:1]/3,6x,7x<4[8:1]/5,{16},,{24}7/3,2,1,8,,,{8}2xb/6xb,{24}2/6,3/7,4/8,5/1,6,7,8,1,2/6,3/7,4/8,5h[24:1]/1h[24:14],,,,,
{8},,,2h[8:3],,,{16}4h[8:7],,,,{8},7,,1,,{16}2,,,,
{8}3/7h[8:4],,,,1,,,{16},4h[16:7]/5,{8},,,{8}6,,7/2,,1<5[8:4],,
{8}2,,3,,4,{8},{16},,{24}1pp4[24:18],2,3,{8},,,E8,,E7,,E6,,{32},,,
{2}6h[16:9],{16},{4}5h[128:299],{16},,,{128},,,4h[8:15],
