&title=ヒトリボッチサテライト
&artist=cosMo@暴走P
&first=0.44
&lv_5=15
&des_5=XH
&inote_5=
(190){8}B3,B4,B5,B6,{2},{8}B3,
B4,B5,B6,{2},{8}B3,
B4,B5,B6,{2},{8}B3,
B4,B5,B6,,B7,{4}B8,
{8}B1,B2,B3,B4,{2},{8}B2,
B3,B4,B5,{2},{8}B3,
B4,B5,B6,{2},{8}B4,
B5,B6,B7,{4}1b,8b,
3-1[4:1],4,5-3[4:1],6,
7-5[4:1],8,1-7[4:1],2,
3-5[4:1],2,1-3[4:1],8,
7-1[4:1],6,5-7[4:1],4,
{8}1x,1,1,1,1,1,1,1,
8x,8,8,8,8,8,8,8,
1x,1,1,1,1/C/B6/B5,1,1,1,
1x/8x,8,8,8,8/C/B3/B4,8,8,8,
1x,2,3,4,5,6,7,8,
8x,7,6,5,4,3,2,1,
{16}1x-5[1.2632##1.3421],8,1,8,1,8,1,8,1,8,1,8,1,8,1,8,
1x-5b[1.2632##0.0789],8,2,7,1,8,2,7,1,8,2,7,1,8,2,7,
{1}Cf/B5/B1/1xpp1[0.1053##1.1579]*qq1[0.1053##1.1579],
,{8}7qq4[0.2368##0.7105],
{4},{8}3,{4},2,
{16}2>5[0.0789##0.3947],{8},{16}6,{8},7,,6,{4}5,
{8}2pp6[0.2368##0.7105],{4},{8}7,{4},8,
{8}7z3[0.1579##0.3158],{4},{8}2,{16},,,B7,B6,B5,B4,B3,
{8}2xpp5[0.2368##0.7105],{4},{8}6,{4},6,
{16}7q4[0.1579##0.3158],{8},{16}3,{8},2,,3,{4}4,
{8}7qq3[0.2368##0.7105],{4},{8}2,{4},1,
{8}2V46[0.0789##0.3947],{4},{8}8w4[4:1],,{16}B7/B1/E8/E1/A8/B8,B6/C/B2,{4}A5/A4/A3/E6/B4/E3,
{16}1,8,1,8,2,8,3,8,4,8,5,8,6,8,7,8,
7,8,7,8,6,8,5,8,4,8,3,8,2,8,1,8,
1,8,1,8,1,7,1,6,1,5,1,4,1,3,1,2,
1,2,1,2,1,3,1,4,1,5,1,6,1,7,1,8,
1,8,2,7,3,6,4,5,4,5,3,6,2,7,1,8,
1,8,2,7,3,6,4,5,4,5,3,6,2,7,1,8,
1,2,3,4,8,7,6,5,1,2,3,4,8,7,6,5,
1,2,3,4,8,1,2,3,7,8,1,2,6,7,8-2-4-6-8[8:5],1-3-5-7-1b[0.2368##0.7895],
{1},{16}5,
4,5,3,5,2,5,1,5,8,5,7<3q7[0.3947##0.7895],{1},{4},{16}2,
8,2,7,2,6,2,5,2,4,2,3,2,3,2,3,
{1}2-7-4-1-6p2[0.1579##2.3684],
,{4},{16}1,
2,1,2,8,3,8,3,7,4,7,4,
5xh/6xh,{8},{16}6/5,,6/5,,5/6,,5/6,4,3,2,1,8,7,
{1}6/5pp4[0.1579##0.9474],
{16}2,1,2,1,3,8,3,8,4,7,4,7,5,6,5,6<7-5-8-4-1-3>2[0.0789##1.1053],
{1},{16}7,
8,7,8,6,1,6,1,5,2,5,2,4,3,4,3,
4,3,4,2,4,1,4,8,4,7,4,6,4,5,4,4,
4,3,4,2,4,1,4,8,4,7,4,6,4,5,4,4,
4,3,4,2,4,1,4,8,4,7,4,6,{8}4,1b/8b,
,1/8,8/1,1/8,8/1,1/8,1/8,2b/7b,
,2/7,2/7,7/2,7/2,7/2,7/2,3b/6b,
,3/6,3/6,3/6,3/6,3/6,3/6,4b/5b,
,4/5,4/5,4/5,4/5,4/5,4/5,4/5,
{24}4/5,3,2,1,8,7,6/4,3,2,1,8,7,4/6,3,2,1,8,7,6/4,3,2,1,8,7,
4/6,3,2,1,8,7,6/4,3,2,1,8,7,4/6,3,2,1,8,7,6/4,3,2,1,8,7,
{4}B6h[1:1],B7h[4:3],B2h[2:1],B3h[4:1],
Cfh[24:0],{16}B3,B2,B1,B8,B7,B6,B5,B4,{2},{4}3h[32:7]/6-4-8[12:5],
{8},2,{4}3h[8:1],
{8},4h[8:1]/5h[8:1],,5/4h[8:1],6,5h[4:1]/4-2-6-8[16:5],3,4,
{4},{8}B2,B3,4h[2:3],5,6,7,
,{16}5,6,7,8,1,2,3,5,6,7,{2},{4}4h[32:3]/3h[32:3],
2h[32:3]/5h[32:3],3h[32:3]/6h[32:3],
3h[32:3]/6h[32:3],5h[32:3]/7h[32:3],{32}5/7,4/6,3/5,2/4,1/3,2,1,8,7,6,5,4,3,2,1,8,
7,6,5,4,3,2,1,8,{6},{12}8h[8:1]/1h[8:1],,7h[8:1]/2h[8:1],,6/3,4/5,,{6}5h[8:1]/4h[8:1],
{12}6/3,7/2,{3}8/1,,{1}Ch[1:1],
,{8},8-4[0.2105##0.1053],
{24},8b/1-5[0.2105##0.1053],{8},{24}1b/7-4[0.2105##0.1053],{8},7b/2-5[0.2105##0.1053],{24},2b/7,{16},{96},{32}4,3,2,
1,8,7,6,5,4,3,2,1,8,7,6,5,4,3,2,1,8,7,6,5,4,3,2,1,8,7,6,{8}5,
{32}1,2,3,4,1,8,7,6,1,2,3,4,1,8,7,6,8,1,2,3,8,7,6,5,8,1,2,3,8,7,6,5,
{24}1,2,3,4,5,6,7/1,2,3,4,5,6,7/1,2,3,4,5,6,7/1,2,3,4,5,6,
{32}7/1,2,3,4,5,6,7,8,1,2,3,4,5,6,7,8,1,2,3,4,5,6,7,8,1,2,3,4,5,6,7,8,
4h,3h,2h,1h,8h,7h,6h,5h,4h,3h,2h,1h,8h,7h,6h,5h,4h,3h,2h,1h,8h,7h,6h,5h,4h,3h,2h,1h,8h,7h,6h,5h,
{1}4h[32:63],
,{16}1,
2,3,4h[4:1],{4},{24}2,3,4,1,2,3,8,1,2,7,8,1,
{1},{16}2,
3,8,1,6,7,4,5,2,3,8,1,6,7,4,5,
2,3,8/4,1,6/2,7,4/1,5,6/2,3,8/4,1,{8}6/2,{16}4/1,5,
{24}6/2b,3,4,5/1b,2,3,4/8b,1,2,3/7b,8,1,2/6b,7,8,1/5b,6,7,8/4b,5,6,7/3b,4,5,
6/2b,6,2b,6,2b,6,2b,6,2b,6,2b,6,2b,6,2b,6,2b,6,2b,6,2b,6,2b,6,
{8},{16}2,3,4,3,2,3,4,3,2,3,4,3,2,3,
7,6,5,6,7,6,5,6,7,6,5,6,7,6,5,6,
{24}7,8,1,2,3,4,6,7,8,1,2,3,5,6,7,8,1,2,4,5,6,7,8,1b,
5,1b,5,1b,5,1b,5,1b,5,1b,5,1b,5,2,3,4,5,6,1/7,2,3,4,5,6,
{16}7/1h,2,3,4,5/1h,2,3,4,5/1h,2,3,4,5/1h,2,3,4,
5/1h,8,7,6,5/1h,8,7,6,5/1h,8,7,6,5/1h,8,7,6,
5/1h,4,3,2,1/5h,8,7,6,5/1h,4,3,2,1/5h,8,7,6,
{32}5/1h,4,3,2,1/5h,8,7,6,5/1h,4,3,2,1/5h,8,7,6,5/1h,4,3,2,1/5h,8,7,6,5/1h,4,3,2,1/5h,8,7,6,
{1},{4},E7,
C,E3,
{2}7V14[0.1579##0.7895],{8}6,5,{4},{1}5-3-6-2-7[0.1579##0.7895],
{2}8qq5[0.1579##0.7895],{8}2,3,{4},{8}8-5[0.6316##0.1579]*-3[0.6316##0.1579],
6/2,4-7[0.4737##0.1579]*-1[0.4737##0.1579],2/6,{2},2V85[0.1579##0.7895],
{8}3,4,{4},{1}4-6-3-7-2[0.1579##0.7895],
{2}1pp4[0.1579##0.7895],{8}7,6,{4},{8}5-8-5[0.6316##0.3158],
8,1-4-1[4:1],4,{2},{24}1,
2,,8,7,,1,2,,8,7,,1,2,,8,7,,1,2,,8,7,,2,
3,,7,6,,2,3,,7,6,,2,3,,7,6,,2,3,,7,6,,3,
4,,6,5,,3,4,,6,5,,3,4,,6,5,,3,4,,6,5,,4,
3,,5,6,,4,3,,5,6,,4,3,,5,6,,4,3,,5,6,,{32}4,
3,2,1,8,7,6,5,4,3,2,1,8,7,6,5,4,3,2,1,8,7,6,5,4,3,2,1,8,7,6,5,
4/8h,3,2,1,8,7,6,5,4/8h,3,2,1,8,7,6,5,4/8h,3,2,1,8,7,6,5,4/8h,3,2,1,8,7,6,5,
4/7h,3,2,1,8,7,6,5,4/6h,3,2,1,8,7,6,5,4/2h,3,2,1,8,7,6,5,4/1h,3,2,1,8,7,6,5,
4/7h,3/8h,2,1,8,7,6,5,4/6h,3/7h,2,1,8,7,6,5,4/2h,3/1h,2,1,8,7,6,5,4/1h,3/8h,{48}2,1s5[4.9474##0.1053],{64},,,{192},{32}7,6,5,
{1},{64}2h,
3,{32},{64}8h,7,{32},{64}2h,3,{32},{64}8h,7,{32},{64}2h,3,{32},{64}8h,7,{32},{64}2h,3,{32},{64}8h,7,{32},{64}2h,3,{32},{64}8h,7,{32},{64}2h,3,{32},{64}8h,7,{32},{64}2h,3,{32},{64}8h,7,{32},{64}2h,3,{32},{64}8h,7,{32},{64}2h,
3,{32},{64}8h,7,{32},{64}3h,4,{32},{64}7h,6,{32},{64}2h,3,{32},{64}8h,7,{32},{64}3h,4,{32},{64}7h,6,{32},{64}2h,3,{32},{64}8h,7,{32},{64}3h,4,{32},{64}7h,6,{32},{64}2h,3,{32},{64}8h,7,{32},{64}3h,4,{32},{64}7h,6,{32},1,
1,1,1,1,1,1,1,1,1,1,1,1,1,1,1,1,1,1,1,1,1,1,1,{4}1,
