&title=アンタに言ってんの!!!
&artist=ぴーなた
&first=1.46
&des_1=アリクス
&des_2=アリクス
&des_3=アリクス
&des_4=アリクス
&des_5=アリクス
&lv_5=13
&des_6=SetDesigner
&des_7=SetDesigner
&des=SetDesigner
&inote_5=(178)
{8}
1-5[8:1],,6,6,1-5[8:1],,7,,1-5[8:1],,8,7,1-5[8:1],,7,,1-5[8:1],,6,6,1-5[8:1],,7,,1-5[8:1],7,,,1-5[8:1],,8,8,2x-5[8:1]b,,6,6,1-5[8:1]b,,7,,2-5[8:1]b,,7,7,1-5[8:1]b,,6,,2-5[8:1]b,,8,7,1-5[8:1]b,,6,,2-5[8:1]b,,7,7,1xb,,7/3,,5qq8[8:5]/4,,,,1h[8:3],,,,2,,73,,4,,2/5<7>1>3<5[8:4],,1,,,,,,,73,4,5,16,5,4-7[8:1]*-1[8:1],,,,
2-6[8:1],,2/8-4[8:1],,8,2,6-1[8:1],3,2-5[8:1],,7-3[8:1]/2,,1-5[8:1]/7,,15,,7hx[8:2]/3hx[8:2],,,A2,B4,B5,A7,D1,
B6h[8:5],,C1h[8:4],,B2h[8:2],,,,
3b-6[8:1]/A7,,8,8,3b-6[8:1]b/A7,,8,8,3b-6[8:1]/A7,,8,8,3b-6[8:1]b/A7,,8,8,3b-6[8:1]/A7,,8,8,3b-6[8:1]b/A7,,8,8,7/3xb<6[8:1],,1xbw5[8:1]b,,C1f,,7b/2b,,34,,7-1[8:1]/5,,2-5[8:1],3,6,7,8x-5-2[8:2],8,1,,3x-6-1[8:2]b,3,7,,5h[8:3],,,4,63,27,,4hx[8:2]/3hx[8:2],,,4-7-2[8:2]/3,1,3>5[8:2]b,,,,8x,,62,3,6/2h[8:2],,8,8,5h[8:2],6,6,7h[8:2],8,8,15,,3h[8:2],4,7h[8:2],5,1,2,8,7,{16}E2,E3,{8}E4,8,8,
{16}3,1,2,8,1,7,8,6,
{8}1h[8:2],3,4,2h[8:2],4,5,3,A6h[8:2],,4,7,8h[8:2],6,5,7h[8:2],5,4-2[8:1],4,5-7[8:1],5,1,1,8,{16}A6,B5,{8}E4,1,1,82,A3,E4,A6,E6,C1,,8,8,2,2h[8:2],,4,3,5,4-1[8:1],,7h[8:2],,8,16,5h[8:2]/2,,4,3h[8:2],,8,7,6,5<8[8:1],,1,3<6[8:1],,8,8,,72,,4>1>4[8:4],,5,,6,,7h[8:2],,5h[8:2],,4h[8:2],,2,,8h[8:2]/3,,5,5h[8:2],,6,6h[8:8],,E3,E7,B2,B7,B1,B8,C1f`B5/B4/E5,,7h[8:1],,8h[8:1]/6h[8:1],,2h[8:1],,13,1v4[8:1]/3,,2q6[8:1],,8,,71,7h[8:8]/1,,3-5[8:1],2,,,1>3[8:1],2,,8<5[8:2],,4,3,2h[8:3],,,6<3[8:2],,3>6[8:2],,6,,4,3,2,1h[8:2],,8,,72,,3,4,5,2-6[8:1]/6,1,,{16},8,{8}8-4[8:1]b,1,2,,
{16}3,5,3,5,2,6,2,6,{8}1,8,1x/8x,,
A2/6b-3[8:1],,1,1,A2/6b-3[8:1]b,,1,1,A2/6b-3[8:1],,1,1,A2/6b-3[8:1]b,,1,1,A2/6b-3[8:1],,1,1,A2/6b-3[8:1]b,,1,1,6xb>3[8:1]/2x,,8xbw4[8:1]b,,C1f,,7b/2b,,16,,83,,24,2,75,7,1-5[8:1],8,1-3[8:1],6-8[8:1],1,6,4w8[8:1]b,7,4b,,,62,73,6-1[8:1]/2-5[8:1],,
C1,,,
73,3,26,6,1-4-6[8:2]b/5-8-2[8:2]b,15,1x/5x,,,,
7/3v4-6[8:3],,7,,8h[8:2],,,2,2,4,4,3,3>1[8:1]/5,,8,7<5[8:1],,4,4,3,E2,E8,E4,E6,2h[8:1],7h[8:1],4-2-8>4[8:4],5,C1h[8:4],,,,,,7,5,E1,E3,E7,E5,8h[8:1],3h[8:1],5<1-7-5[8:4],4,C1h[8:4],,,,,,
2,2/4h[8:2],,1,8,5,6-2[8:1],,1-5[8:1]b,,7h[8:2],,,7h[8:2],,4,4,5-7[8:1],3,,,1,1,{16}3,4,3-1[8:1]b,,{8}2,,7-5[8:1]b,,,4,4,5,2-7[8:1],5,,,6,4,
{16}7,8,7-5[8:1]b,8,7,,,,1-3[8:1]b,,{8},,8,7,6,5-2[8:1],6,,,8,8,{16}1,1,6-4[8:1]b,,{8}8,,3-8[8:1]b,2,,7,6,5,4-2[8:1],5,,,
{16}
7,8,7,,2,1,2,1,2,1,
3hx[8:2],,,,
{8}
4<6[8:1],2,,,
3hx[8:2],,
4<6[8:1],1,,,E3,E7,C1,,
6hx[8:2],,5>3[8:1],7,,,
6hx[8:2],,5>3[8:1],8,,,7,5,4,2,
8hx[8:2],,1>3[8:1],A7,,
8,8hx[8:2],,1>3[8:1],A6,,,7,6,4,2,1hx[8:2],,8<6[8:1],A2,,,
1hx[8:2],,8<6[8:1],A3,4w8[8:1]b,,A8/D8/D1,,,,A7/3bv6[8:1],,8,8,7bv2[8:1]b/A3,,4,4,A7/3bv6[8:1],,8,8,7bv2[8:1]b/A3,,4,4,A7/3bv6[8:1],,8,8,7bv2[8:1]b/A3,,4,4,A7f/3xbv6[8:1],,A3f/8xbw4[8:1]b,,C1f/8xb,,7b/2b,,
5h[8:1]/6,8,4h[8:1]/3,1,75,7,24,2,8p4[8:1],1,8<6[8:1],3>1[8:1],8,3,5<8[8:1]b*>2[8:1]b,2,5b,,,26,73,84,,
{32}
1x/6x,2x/5x,3hx[32:10]/4hx[32:18],,,,,,,,,,,,,,,,,,
{8}1,1,1,
{32}
8x/3x,7x/4x,6hx[32:10]/5hx[32:18],,,,,,,,,,,,,,,,,,
{8}
8,8,7v4[8:1]b/1v4[8:1]b,62,C1f,,,,
3<7[8:2],,7>3[8:2],,3,,,7,6,5,4,3,2h[8:2]/7,,4<8[8:2],3,,,,4,4h[8:2],6,5h[8:2],7,6h[8:2],8,7>6[8:4]b,1,A2h[8:4],,,,,,73,5,5h[8:2],3,4h[8:2],2,3h[8:2],1,2<3[8:4]b,8,A7h[8:4],,,,,,,2x/6x,,84,73,84,7-4[8:1]/3-8[8:1],,C1,,
1x/5x-3-7-1[8:2],,,,
E
